<?xml version="1.0" standalone="no"?>
<!DOCTYPE svg PUBLIC "-//W3C//DTD SVG 1.1//EN" "http://www.w3.org/Graphics/SVG/1.1/DTD/svg11.dtd" >
<svg xmlns="http://www.w3.org/2000/svg" xmlns:xlink="http://www.w3.org/1999/xlink" version="1.1">
<metadata>
Created by FontForge 20160407 at Mon Dec  5 18:25:17 2016
 By Jimmy Wärting
1994, Tobias Frere-Jones. Designed by Tobias Frere-Jones. Produced by The Font Bureau, Inc. Euro-sign 1998 by formgebung Henning Krause, Berlin, Germany.
</metadata>
<defs>
<font id="Interstate-Light" horiz-adv-x="728" >
  <font-face 
    font-family="Interstate"
    font-weight="400"
    font-stretch="normal"
    units-per-em="1000"
    panose-1="2 0 5 6 3 0 0 2 0 4"
    ascent="800"
    descent="-200"
    x-height="525"
    cap-height="700"
    bbox="-52 -193 1300 914"
    underline-thickness="20"
    underline-position="-133"
    unicode-range="U+0020-FB02"
  />
<missing-glyph horiz-adv-x="500" 
 />
    <glyph glyph-name=".notdef" horiz-adv-x="500" 
 />
    <glyph glyph-name="NUL" horiz-adv-x="0" 
 />
    <glyph glyph-name="nonmarkingreturn" horiz-adv-x="260" 
 />
    <glyph glyph-name="space" unicode=" " horiz-adv-x="260" 
 />
    <glyph glyph-name="lslash" unicode="&#x142;" horiz-adv-x="261" 
d="M168 316v-316h-75v256l-49 -43v91l49 43v340l75 42v-323l49 44v-91z" />
    <glyph glyph-name="Scaron" unicode="&#x160;" horiz-adv-x="592" 
d="M522 184q0 -41 -15.5 -77t-45.5 -62t-73 -41t-98 -15q-72 0 -132.5 27.5t-102.5 69.5l52 58q40 -38 86 -61t100 -23q70 0 110.5 32t40.5 88q0 24 -8 44t-27.5 37t-51.5 33.5t-80 33.5q-57 20 -95.5 40.5t-62 44t-34 52.5t-10.5 67q0 42 16 75t44.5 56.5t69 35.5t89.5 12
q70 0 119.5 -20t93.5 -55l-50 -61q-38 32 -76.5 48.5t-91.5 16.5q-36 0 -62 -8.5t-42.5 -22.5t-24 -32.5t-7.5 -39.5q0 -22 6 -39.5t24 -34t50.5 -32.5t85.5 -35q58 -21 97 -42t62.5 -46t33.5 -55t10 -69zM334 754h-84l-123 160h65l101 -103l101 103h63z" />
    <glyph glyph-name="scaron" unicode="&#x161;" horiz-adv-x="467" 
d="M408 137q0 -39 -15.5 -67t-40.5 -46t-57.5 -26.5t-66.5 -8.5q-54 0 -100.5 18.5t-84.5 48.5l44 55q32 -28 68 -43t75 -15q54 0 80 21.5t26 59.5q0 16 -6.5 29t-21 25.5t-38 25t-58.5 27.5q-39 17 -67.5 32.5t-46.5 33.5t-26.5 40.5t-8.5 54.5q0 30 12.5 54.5t34 42.5
t51.5 27.5t66 9.5q54 0 96 -15.5t72 -40.5l-42 -55q-31 24 -60 35.5t-71 11.5t-64.5 -18t-22.5 -47q0 -17 5.5 -29t19 -23.5t36 -23t55.5 -26.5q37 -17 66 -32t49.5 -33.5t31 -43t10.5 -59.5zM271 595h-84l-123 160h65l101 -103l101 103h63z" />
    <glyph glyph-name="Yacute" unicode="&#xdd;" horiz-adv-x="652" 
d="M365 278v-278h-78v277l-240 423h89l112 -201q21 -38 42.5 -78.5t36.5 -71.5q15 31 36.5 71.5t42.5 78.5l112 201h87zM348 726h-59l103 160h107z" />
    <glyph glyph-name="yacute" unicode="&#xfd;" horiz-adv-x="531" 
d="M230 -185h-75l72 191l-187 519h79l128 -381l18 -54l18 53l129 382h79zM284 586h-59l103 160h107z" />
    <glyph glyph-name="Thorn" unicode="&#xde;" horiz-adv-x="618" 
d="M577 365q0 -52 -17.5 -92.5t-48.5 -68t-75 -41.5t-96 -14h-170v-149h-78v700h78v-126h184q48 0 88.5 -12.5t70.5 -38.5t47 -65.5t17 -92.5zM499 362q0 68 -38 104.5t-110 36.5h-181v-283h171q158 0 158 142z" />
    <glyph glyph-name="thorn" unicode="&#xfe;" horiz-adv-x="559" 
d="M504 271q0 -70 -15.5 -122.5t-42.5 -88t-63 -53.5t-77 -18q-50 0 -85 19t-63 51v-210l-75 -42v880l75 42v-268q28 30 66 52.5t92 22.5q39 0 73.5 -15.5t60 -47.5t40 -82.5t14.5 -119.5zM430 270q0 100 -35 150.5t-98 50.5q-42 0 -76.5 -20.5t-62.5 -55.5v-262
q22 -33 58.5 -56t83.5 -23q66 0 98 55t32 161z" />
    <glyph glyph-name="Zcaron" unicode="&#x17d;" horiz-adv-x="628" 
d="M61 0v68l331 451q21 29 43 58t42 55h-79h-317v68h480v-68l-331 -451q-21 -29 -43 -58t-42 -55h79h337v-68h-500zM358 745h-84l-123 160h65l101 -103l101 103h63z" />
    <glyph glyph-name="zcaron" unicode="&#x17e;" horiz-adv-x="492" 
d="M54 0v55l287 407v0v0h-264v63h349v-55l-287 -407v0v0h287v-63h-372zM292 595h-84l-123 160h65l101 -103l101 103h63z" />
    <glyph glyph-name="onehalf" unicode="&#xbd;" 
d="M542 224q-6 -4 -9 -3q-5 2 -2 10l30 80h-161v-179l80 30q8 3 10 -2q1 -3 -3 -9l-121 -166l-121 166q-4 6 -3 9q2 5 10 2l80 -30v179h-165l30 -80q3 -8 -2 -10q-3 -1 -9 3l-166 121l166 121q6 4 9 3q5 -2 2 -10l-30 -80h165v189l-80 -30q-8 -3 -10 2q-1 3 3 9l121 166
l121 -166q4 -6 3 -9q-2 -5 -10 -2l-80 30v-189h161l-30 80q-3 8 2 10q3 1 9 -3l166 -121z" />
    <glyph glyph-name="onequarter" unicode="&#xbc;" 
d="M542 224q-6 -4 -9 -3q-5 2 -2 10l30 80h-161v-179l80 30q8 3 10 -2q1 -3 -3 -9l-121 -166l-121 166q-4 6 -3 9q2 5 10 2l80 -30v179h-165l30 -80q3 -8 -2 -10q-3 -1 -9 3l-166 121l166 121q6 4 9 3q5 -2 2 -10l-30 -80h165v189l-80 -30q-8 -3 -10 2q-1 3 3 9l121 166
l121 -166q4 -6 3 -9q-2 -5 -10 -2l-80 30v-189h161l-30 80q-3 8 2 10q3 1 9 -3l166 -121z" />
    <glyph glyph-name="onesuperior" unicode="&#xb9;" 
d="M542 224q-6 -4 -9 -3q-5 2 -2 10l30 80h-161v-179l80 30q8 3 10 -2q1 -3 -3 -9l-121 -166l-121 166q-4 6 -3 9q2 5 10 2l80 -30v179h-165l30 -80q3 -8 -2 -10q-3 -1 -9 3l-166 121l166 121q6 4 9 3q5 -2 2 -10l-30 -80h165v189l-80 -30q-8 -3 -10 2q-1 3 3 9l121 166
l121 -166q4 -6 3 -9q-2 -5 -10 -2l-80 30v-189h161l-30 80q-3 8 2 10q3 1 9 -3l166 -121z" />
    <glyph glyph-name="threequarters" unicode="&#xbe;" 
d="M542 224q-6 -4 -9 -3q-5 2 -2 10l30 80h-161v-179l80 30q8 3 10 -2q1 -3 -3 -9l-121 -166l-121 166q-4 6 -3 9q2 5 10 2l80 -30v179h-165l30 -80q3 -8 -2 -10q-3 -1 -9 3l-166 121l166 121q6 4 9 3q5 -2 2 -10l-30 -80h165v189l-80 -30q-8 -3 -10 2q-1 3 3 9l121 166
l121 -166q4 -6 3 -9q-2 -5 -10 -2l-80 30v-189h161l-30 80q-3 8 2 10q3 1 9 -3l166 -121z" />
    <glyph glyph-name="threesuperior" unicode="&#xb3;" 
d="M542 224q-6 -4 -9 -3q-5 2 -2 10l30 80h-161v-179l80 30q8 3 10 -2q1 -3 -3 -9l-121 -166l-121 166q-4 6 -3 9q2 5 10 2l80 -30v179h-165l30 -80q3 -8 -2 -10q-3 -1 -9 3l-166 121l166 121q6 4 9 3q5 -2 2 -10l-30 -80h165v189l-80 -30q-8 -3 -10 2q-1 3 3 9l121 166
l121 -166q4 -6 3 -9q-2 -5 -10 -2l-80 30v-189h161l-30 80q-3 8 2 10q3 1 9 -3l166 -121z" />
    <glyph glyph-name="twosuperior" unicode="&#xb2;" 
d="M542 224q-6 -4 -9 -3q-5 2 -2 10l30 80h-161v-179l80 30q8 3 10 -2q1 -3 -3 -9l-121 -166l-121 166q-4 6 -3 9q2 5 10 2l80 -30v179h-165l30 -80q3 -8 -2 -10q-3 -1 -9 3l-166 121l166 121q6 4 9 3q5 -2 2 -10l-30 -80h165v189l-80 -30q-8 -3 -10 2q-1 3 3 9l121 166
l121 -166q4 -6 3 -9q-2 -5 -10 -2l-80 30v-189h161l-30 80q-3 8 2 10q3 1 9 -3l166 -121z" />
    <glyph glyph-name="brokenbar" unicode="&#xa6;" 
d="M542 224q-6 -4 -9 -3q-5 2 -2 10l30 80h-161v-179l80 30q8 3 10 -2q1 -3 -3 -9l-121 -166l-121 166q-4 6 -3 9q2 5 10 2l80 -30v179h-165l30 -80q3 -8 -2 -10q-3 -1 -9 3l-166 121l166 121q6 4 9 3q5 -2 2 -10l-30 -80h165v189l-80 -30q-8 -3 -10 2q-1 3 3 9l121 166
l121 -166q4 -6 3 -9q-2 -5 -10 -2l-80 30v-189h161l-30 80q-3 8 2 10q3 1 9 -3l166 -121z" />
    <glyph glyph-name="minus" unicode="&#x2212;" 
d="M542 224q-6 -4 -9 -3q-5 2 -2 10l30 80h-161v-179l80 30q8 3 10 -2q1 -3 -3 -9l-121 -166l-121 166q-4 6 -3 9q2 5 10 2l80 -30v179h-165l30 -80q3 -8 -2 -10q-3 -1 -9 3l-166 121l166 121q6 4 9 3q5 -2 2 -10l-30 -80h165v189l-80 -30q-8 -3 -10 2q-1 3 3 9l121 166
l121 -166q4 -6 3 -9q-2 -5 -10 -2l-80 30v-189h161l-30 80q-3 8 2 10q3 1 9 -3l166 -121z" />
    <glyph glyph-name="multiply" unicode="&#xd7;" 
d="M542 224q-6 -4 -9 -3q-5 2 -2 10l30 80h-161v-179l80 30q8 3 10 -2q1 -3 -3 -9l-121 -166l-121 166q-4 6 -3 9q2 5 10 2l80 -30v179h-165l30 -80q3 -8 -2 -10q-3 -1 -9 3l-166 121l166 121q6 4 9 3q5 -2 2 -10l-30 -80h165v189l-80 -30q-8 -3 -10 2q-1 3 3 9l121 166
l121 -166q4 -6 3 -9q-2 -5 -10 -2l-80 30v-189h161l-30 80q-3 8 2 10q3 1 9 -3l166 -121z" />
    <glyph glyph-name="Lslash" unicode="&#x141;" horiz-adv-x="585" 
d="M102 0v238l-62 -54v89l62 54v373h78v-312l161 137v-89l-161 -137v-228h346v-71h-424z" />
    <glyph glyph-name="exclam" unicode="!" horiz-adv-x="263" 
d="M152 188h-42l-17 183v329h77v-329zM192 50q0 -25 -18.5 -43t-42.5 -18q-25 0 -43 18t-18 43t18 44t43 19q24 0 42.5 -19t18.5 -44z" />
    <glyph glyph-name="quotedbl" unicode="&#x22;" horiz-adv-x="460" 
d="M359 373h-59l-17 327h93zM160 373h-59l-17 327h93z" />
    <glyph glyph-name="numbersign" unicode="#" horiz-adv-x="672" 
d="M500 176v-176h-75v176h-178v-176h-75v176h-120v70h120v208h-120v70h120v176h75v-176h178v176h75v-176h120v-70h-120v-208h120v-70h-120zM425 454h-178v-208h178v208z" />
    <glyph glyph-name="dollar" unicode="$" horiz-adv-x="582" 
d="M517 189q0 -75 -51 -126.5t-143 -61.5v-101h-75v101q-60 7 -111 32.5t-87 62.5l52 58q40 -38 86 -61t100 -23q70 0 110.5 29.5t40.5 85.5q0 24 -8 43t-27.5 35.5t-51.5 32t-80 32.5q-57 20 -95.5 39.5t-62 42.5t-34 51t-10.5 66q0 75 48.5 119t129.5 53v101h75v-100
q57 -5 98.5 -24t80.5 -50l-50 -61q-38 32 -76.5 48.5t-91.5 16.5q-72 0 -104 -28t-32 -70q0 -22 6 -39t24 -32t50.5 -30.5t85.5 -34.5q58 -21 97 -41.5t62.5 -44t33.5 -53t10 -68.5z" />
    <glyph glyph-name="percent" horiz-adv-x="963" 
d="M903 207q0 -48 -12 -88t-33.5 -69t-51.5 -45t-67 -16t-66.5 15.5t-50.5 44t-32.5 68.5t-11.5 88q0 49 11.5 89t32.5 69t51 45t68 16t68 -16t51 -44.5t32 -68.5t11 -88zM300 0h-73l435 700h73zM385 494q0 -48 -12 -88t-33.5 -69t-51.5 -45t-67 -16t-66.5 15.5t-50.5 44
t-32.5 68.5t-11.5 88q0 49 11.5 89t32.5 69t51 45t68 16t68 -16t51 -44.5t32 -68.5t11 -88zM834 205q0 34 -6.5 63.5t-18.5 50.5t-29.5 33t-39.5 12q-44 0 -68.5 -44t-24.5 -113t25 -113.5t69 -44.5q22 0 39 12.5t29 34t18.5 49.5t6.5 60zM316 492q0 34 -6.5 63.5
t-18.5 50.5t-29.5 33t-39.5 12q-44 0 -68.5 -44t-24.5 -113t25 -113.5t69 -44.5q22 0 39 12.5t29 34t18.5 49.5t6.5 60z" />
    <glyph glyph-name="ampersand" unicode="&#x26;" horiz-adv-x="644" 
d="M517 0l-56 73q-38 -39 -85 -61.5t-104 -22.5q-58 0 -98 15t-65 40.5t-36.5 60t-11.5 72.5q0 39 10.5 70t31 56t49.5 45.5t66 39.5l-24 32q-26 35 -44 67t-18 73q0 33 12.5 60.5t35.5 48t56 31.5t74 11q59 0 103.5 -16.5t82.5 -46.5l-40 -62q-39 31 -72.5 44t-74.5 13
q-47 0 -73.5 -22t-26.5 -57q0 -28 11 -50t31 -48l213 -277q14 26 25.5 57t22.5 66l66 -20q-24 -89 -70 -160l101 -132h-92zM258 337q-66 -30 -94 -68.5t-28 -89.5t35 -86.5t103 -35.5q45 0 81 18t65 50z" />
    <glyph glyph-name="quotesingle" unicode="'" horiz-adv-x="257" 
d="M159 373h-61l-17 327h95z" />
    <glyph glyph-name="parenleft" unicode="(" horiz-adv-x="348" 
d="M266 -110q-38 34 -74.5 77t-65 94t-46 110.5t-17.5 128.5q0 72 17.5 133t46 112.5t65 93.5t74.5 77l33 -31q-36 -37 -65 -78t-50 -87.5t-32.5 -100t-11.5 -114.5q0 -63 11.5 -117.5t32.5 -101.5t50 -87.5t65 -77.5z" />
    <glyph glyph-name="parenright" unicode=")" horiz-adv-x="348" 
d="M285 306q0 -72 -17.5 -133t-46 -112.5t-65 -94t-74.5 -76.5l-33 31q71 73 115 165.5t44 214.5q0 63 -11.5 117.5t-32.5 101.5t-50 87.5t-65 77.5l33 31q38 -35 74.5 -77.5t65 -93.5t46 -110.5t17.5 -128.5z" />
    <glyph glyph-name="asterisk" unicode="*" horiz-adv-x="500" 
d="M397 391l-133 99l17 -166h-62l17 166l-133 -99l-31 54l148 67l-148 67l31 54l133 -99l-17 166h62l-17 -166l133 99l31 -54l-148 -67l148 -67z" />
    <glyph glyph-name="plus" unicode="+" horiz-adv-x="577" 
d="M325 310v-203h-73v203h-197v68h197v203h73v-203h197v-68h-197z" />
    <glyph glyph-name="comma" unicode="," horiz-adv-x="240" 
d="M112 -118h-52l15 233h102z" />
    <glyph glyph-name="hyphen" unicode="-" horiz-adv-x="322" 
d="M51 329v73h220v-73h-220z" />
    <glyph glyph-name="period" unicode="." horiz-adv-x="240" 
d="M184 53q0 -26 -19 -45t-45 -19t-45 19t-19 45t19 46t45 20t45 -20t19 -46z" />
    <glyph glyph-name="slash" unicode="/" horiz-adv-x="425" 
d="M100 -90h-74l299 880h74z" />
    <glyph glyph-name="zero" unicode="0" horiz-adv-x="642" 
d="M583 350q0 -87 -19 -154.5t-53.5 -113t-83 -69.5t-106.5 -24q-59 0 -107 24t-82.5 69.5t-53.5 113t-19 154.5t19 154.5t53.5 113t82.5 69.5t107 24q58 0 106.5 -24t83 -69.5t53.5 -113t19 -154.5zM506 350q0 136 -47 213.5t-138 77.5t-138 -77.5t-47 -213.5t47 -213.5
t138 -77.5t138 77.5t47 213.5z" />
    <glyph glyph-name="one" unicode="1" horiz-adv-x="312" 
d="M142 0v560h-127v49q58 4 97 23t48 68h59v-700h-77z" />
    <glyph glyph-name="two" unicode="2" horiz-adv-x="569" 
d="M39 0q3 66 20 115t46 88t69 72t90 67q46 31 75.5 54.5t46.5 44t23 40t6 43.5q0 54 -37 85.5t-106 31.5q-60 0 -98.5 -18t-71.5 -47l-45 57q21 17 43.5 31.5t49 25t57 16t68.5 5.5q46 0 86 -11t69 -33.5t45.5 -57t16.5 -81.5q0 -39 -9.5 -68t-30.5 -55t-54 -51.5
t-81 -58.5q-53 -36 -87.5 -64.5t-55.5 -54t-31 -50t-15 -52.5h371v-74h-460z" />
    <glyph glyph-name="three" unicode="3" horiz-adv-x="563" 
d="M498 201q0 -100 -66.5 -156t-182.5 -56q-33 0 -65 8t-60 21.5t-51.5 31t-40.5 36.5l52 52q33 -35 75.5 -57t93.5 -22q86 0 127 36t41 104q0 66 -45.5 99t-120.5 33h-46v67h48q69 0 102 34t33 90q0 25 -7.5 47t-24.5 38t-44.5 25t-67.5 9q-45 0 -80 -18t-61 -46l-49 50
q15 16 35 31t44.5 27t52.5 19t60 7q46 0 86 -11t69.5 -33.5t46.5 -56t17 -78.5q0 -64 -27 -102.5t-72 -61.5q25 -6 48.5 -18t41 -32.5t28 -49t10.5 -67.5z" />
    <glyph glyph-name="four" unicode="4" horiz-adv-x="625" 
d="M485 166v-166h-72v166h-374v65l362 469h84v-467h96v-67h-96zM413 543v64q-8 -12 -19.5 -27.5t-25 -33t-27.5 -36t-27 -35.5l-95 -123q-11 -14 -23.5 -30l-25 -32t-25 -31t-21.5 -26h63h226v310z" />
    <glyph glyph-name="five" unicode="5" horiz-adv-x="605" 
d="M542 233q0 -63 -19.5 -109t-54.5 -76t-83 -44.5t-106 -14.5q-65 0 -120.5 17.5t-100.5 46.5l38 62q39 -25 87.5 -40.5t101.5 -15.5q91 0 135.5 47t44.5 122q0 69 -42 108t-125 39q-49 0 -83 -12.5t-63 -32.5l-77 30l24 340h401v-74h-334l-17 -225q26 18 65 31t89 13
q60 0 105 -15.5t74.5 -43.5t44.5 -67t15 -86z" />
    <glyph glyph-name="six" unicode="6" horiz-adv-x="614" 
d="M570 216q0 -56 -20 -98.5t-54.5 -71t-81.5 -43t-102 -14.5q-52 0 -98 15t-80 48t-53.5 85.5t-19.5 127.5q0 45 8.5 94.5t28 98t51 92t76.5 78t104.5 56.5t136.5 27v-69q-139 -12 -221 -86t-109 -208q34 36 81 59t121 23q48 0 90 -13t73.5 -39.5t50 -67t18.5 -94.5z
M493 212q0 71 -46 109.5t-129 38.5q-84 0 -132 -40.5t-48 -107.5q0 -33 12.5 -61t36 -48.5t56 -32t72.5 -11.5q88 0 133 42.5t45 110.5z" />
    <glyph glyph-name="seven" unicode="7" horiz-adv-x="556" 
d="M476 627q-46 -57 -87.5 -123.5t-73 -144t-51 -167t-21.5 -192.5h-79q3 94 20.5 180t47.5 164t70.5 148.5t88.5 133.5h-375v74h460v-73v0z" />
    <glyph glyph-name="eight" unicode="8" horiz-adv-x="636" 
d="M578 196q0 -51 -18.5 -89.5t-52.5 -65t-82 -39.5t-108 -13t-107.5 13t-81.5 38.5t-52 64t-18 89.5q0 69 36.5 114t102.5 67q-48 19 -78.5 54.5t-30.5 93.5q0 41 15 75.5t44.5 59.5t72.5 39t99 14t98.5 -13.5t71.5 -38.5t44 -59t15 -75q0 -57 -29.5 -92t-79.5 -56
q66 -22 102.5 -67t36.5 -114zM471 523q0 22 -8.5 43.5t-26.5 38t-47.5 26.5t-71.5 10t-71 -10t-47 -26t-26 -37t-8 -43q0 -51 41 -85t113 -34q70 0 111 34t41 83zM501 194q0 62 -48 102t-136 40t-135 -39t-47 -101t45.5 -99.5t138.5 -37.5t137.5 36.5t44.5 98.5z" />
    <glyph glyph-name="nine" unicode="9" horiz-adv-x="614" 
d="M553 435q0 -45 -8.5 -94.5t-28 -98t-51 -92t-76.5 -78t-104.5 -57t-136.5 -26.5v69q139 12 221 86t109 208q-34 -36 -81 -59t-121 -23q-48 0 -90.5 13t-74 39.5t-49.5 67t-18 94.5q0 56 20 98.5t54.5 71t81.5 43t102 14.5q52 0 98 -15t80 -48t53.5 -85.5t19.5 -127.5z
M476 488q0 33 -13 61t-36 48.5t-55.5 32t-72.5 11.5q-88 0 -133 -42.5t-45 -110.5q0 -71 46 -109.5t129 -38.5q84 0 132 40.5t48 107.5z" />
    <glyph glyph-name="colon" unicode=":" horiz-adv-x="240" 
d="M184 470q0 -26 -19 -45t-45 -19t-45 19t-19 45t19 46t45 20t45 -20t19 -46zM184 53q0 -26 -19 -45t-45 -19t-45 19t-19 45t19 46t45 20t45 -20t19 -46z" />
    <glyph glyph-name="semicolon" unicode=";" horiz-adv-x="240" 
d="M184 470q0 -26 -19 -45t-45 -19t-45 19t-19 45t19 46t45 20t45 -20t19 -46zM105 -118h-52l15 233h102z" />
    <glyph glyph-name="less" unicode="&#x3c;" horiz-adv-x="385" 
d="M57 310v68l259 248v-93l-200 -188l200 -188v-95z" />
    <glyph glyph-name="equal" unicode="=" horiz-adv-x="577" 
d="M80 418v70h417v-70h-417zM80 200v70h417v-70h-417z" />
    <glyph glyph-name="greater" unicode="&#x3e;" horiz-adv-x="385" 
d="M69 62v93l200 188l-200 188v95l259 -248v-68z" />
    <glyph glyph-name="question" unicode="?" horiz-adv-x="561" 
d="M494 539q0 -36 -8.5 -62.5t-24.5 -46.5t-39 -37t-52 -35q-25 -15 -40 -29t-23 -32t-10.5 -44t-2.5 -65h-77q0 50 3.5 83t16 57.5t36 44.5t62.5 44t60 48.5t21 67.5q0 48 -39 77.5t-102 29.5q-56 0 -99 -20.5t-82 -56.5l-50 55q40 39 99 66t135 27q48 0 87.5 -11t68 -32.5
t44.5 -53.5t16 -75zM315 50q0 -25 -18.5 -43t-42.5 -18q-25 0 -43 18t-18 43t18 44t43 19q24 0 42.5 -19t18.5 -44z" />
    <glyph glyph-name="at" unicode="@" horiz-adv-x="836" 
d="M779 360q0 -57 -10.5 -96.5t-30 -64t-47 -36t-60.5 -11.5q-38 0 -65.5 18.5t-41.5 44.5q-23 -29 -55.5 -46t-74.5 -17q-33 0 -61 8.5t-48.5 25.5t-32 42.5t-11.5 60.5q0 32 12.5 56.5t34.5 41t51.5 25t63.5 8.5q39 0 65.5 -8t45.5 -19v59q0 32 -24 48t-79 16
q-27 0 -53 -6.5t-49 -17.5l-22 43q30 15 62 23t69 8q67 0 107.5 -25t40.5 -86v-193q0 -27 16.5 -46t54.5 -19q20 0 37 8.5t29 28t19 50t7 75.5q0 68 -23.5 124.5t-65 96.5t-98.5 62t-124 22q-68 0 -125 -22.5t-98 -63t-64.5 -98.5t-23.5 -128q0 -71 23.5 -129.5t64.5 -100
t98 -64t125 -22.5q40 0 72 7.5t64 23.5l18 -44q-43 -20 -77 -27t-77 -7q-78 0 -144.5 27t-114.5 75t-75 114.5t-27 144.5t27 144.5t75 114.5t114.5 75t144.5 27q80 0 146.5 -28t114 -76t74 -112t26.5 -135zM514 343q-19 11 -48 20t-68 9q-45 0 -73 -22.5t-28 -57.5
q0 -44 24 -67t78 -23q35 0 66.5 17t48.5 43v81z" />
    <glyph glyph-name="A" unicode="A" horiz-adv-x="678" 
d="M543 0l-60 178h-289l-61 -178h-80l243 700h86l243 -700h-82zM382 479q-6 17 -12.5 37t-12.5 38.5t-10.5 35l-7.5 27.5q-3 -11 -7.5 -27t-10.5 -35t-13 -39.5t-13 -38.5l-77 -228h241z" />
    <glyph glyph-name="B" unicode="B" horiz-adv-x="626" 
d="M571 207q0 -104 -58.5 -155.5t-169.5 -51.5h-251v700h256q42 0 76.5 -10.5t60 -32t39.5 -54.5t14 -78q0 -58 -28 -92.5t-73 -50.5q24 -6 48 -18.5t43 -33t31 -51t12 -72.5zM460 522q0 48 -28 77.5t-87 29.5h-175v-218h169q65 0 93 32.5t28 78.5zM493 203q0 66 -40 102
t-109 36h-174v-270h178q79 0 112 36t33 96z" />
    <glyph glyph-name="C" unicode="C" horiz-adv-x="628" 
d="M574 105q-38 -52 -95 -84t-134 -32q-64 0 -116.5 27.5t-89.5 75.5t-57 114t-20 143q0 78 21 144.5t58.5 114.5t90.5 75.5t116 27.5q142 0 223 -112l-62 -47q-34 46 -70 67t-93 21q-45 0 -83 -21.5t-65 -59.5t-42.5 -91t-15.5 -117t15.5 -117.5t43.5 -92t66 -60t82 -21.5
q57 0 98 24t75 68l54 -47v0z" />
    <glyph glyph-name="D" unicode="D" horiz-adv-x="658" 
d="M596 355q0 -95 -25.5 -162.5t-70.5 -110.5t-106 -62.5t-131 -19.5h-171v700h185q69 0 127.5 -20t101 -62.5t66.5 -107.5t24 -155zM518 352q0 135 -63 206t-184 71h-101v-558h103q57 0 102 15.5t77 49.5t49 87.5t17 128.5z" />
    <glyph glyph-name="E" unicode="E" horiz-adv-x="587" 
d="M92 0v700h423v-71h-345v-220h200v-71h-200v-267h360v-71h-438z" />
    <glyph glyph-name="F" unicode="F" horiz-adv-x="548" 
d="M170 629v-232h192v-71h-192v-326h-78v700h411v-71h-333z" />
    <glyph glyph-name="G" unicode="G" horiz-adv-x="659" 
d="M604 279q0 -72 -19.5 -126.5t-54.5 -91t-82.5 -54.5t-102.5 -18q-64 0 -116.5 27.5t-89.5 75.5t-57 114t-20 143q0 78 21 144.5t58.5 114.5t90.5 75.5t116 27.5q142 0 223 -112l-62 -47q-34 46 -70 67t-93 21q-45 0 -83 -21.5t-65 -59.5t-42.5 -91t-15.5 -117t16 -117.5
t43.5 -92t65.5 -60t82 -21.5q88 0 134.5 53t46.5 156v6h-126v72h202v-68v0z" />
    <glyph glyph-name="H" unicode="H" horiz-adv-x="688" 
d="M518 0v330h-348v-330h-78v700h78v-299h348v299h78v-700h-78z" />
    <glyph glyph-name="I" unicode="I" horiz-adv-x="272" 
d="M97 0v700h78v-700h-78z" />
    <glyph glyph-name="J" unicode="J" horiz-adv-x="578" 
d="M491 268q0 -279 -239 -279q-89 0 -141.5 43.5t-80.5 125.5l74 25q21 -57 55 -90t96 -33q84 0 121 50.5t37 160.5v429h78v-432v0z" />
    <glyph glyph-name="K" unicode="K" horiz-adv-x="642" 
d="M510 0l-207 373l-133 -172v-201h-78v700h78v-305v-94q7 10 19.5 27.5t27.5 37.5t29.5 39t25.5 33l203 262h85l-205 -263l244 -437h-89z" />
    <glyph glyph-name="L" unicode="L" horiz-adv-x="575" 
d="M92 0v700h78v-629h346v-71h-424z" />
    <glyph glyph-name="M" unicode="M" horiz-adv-x="788" 
d="M621 0v474v75q-3 -10 -7.5 -24.5t-10.5 -30t-12 -31.5t-12 -30l-187 -451l-184 451q-6 13 -12 29.5t-11.5 32t-10 30t-7.5 24.5v-75v-474h-75v700h87l165 -419q6 -16 13.5 -35t14.5 -38t13 -35.5t9 -27.5q3 11 9 28t13 36t14.5 38t13.5 34l167 419h85v-700h-75z" />
    <glyph glyph-name="N" unicode="N" horiz-adv-x="688" 
d="M523 0l-306 479q-6 9 -13 21.5l-14 25t-13.5 23.5t-9.5 18v-48v-519h-75v700h76l303 -488q6 -9 13 -21.5l14 -25t13.5 -23.5t9.5 -18v48v528h75v-700h-73z" />
    <glyph glyph-name="O" unicode="O" horiz-adv-x="705" 
d="M643 351q0 -79 -21 -145.5t-59.5 -114.5t-92.5 -75t-119 -27t-118.5 26.5t-91.5 74.5t-58.5 114t-20.5 145t21 145.5t59 114.5t92 75t119 27t118.5 -26.5t91.5 -74.5t59 -114t21 -145zM565 349q0 66 -16.5 119.5t-45.5 92t-68 59t-85 20.5q-45 0 -83.5 -20.5t-66.5 -58
t-44 -91t-16 -119.5t16.5 -119.5t45 -92t67.5 -59t85 -20.5q45 0 84 20.5t67 58t44 91t16 119.5z" />
    <glyph glyph-name="P" unicode="P" horiz-adv-x="618" 
d="M577 491q0 -52 -17.5 -92.5t-48.5 -68t-75 -41.5t-96 -14h-170v-275h-78v700h262q48 0 88.5 -12.5t70.5 -38.5t47 -65.5t17 -92.5zM499 488q0 68 -38 104.5t-110 36.5h-181v-283h171q158 0 158 142z" />
    <glyph glyph-name="Q" unicode="Q" horiz-adv-x="705" 
d="M643 351q0 -98 -33 -175.5t-90 -125.5l45 -73l-64 -38l-44 72q-50 -22 -106 -22q-65 0 -118.5 26.5t-91.5 74.5t-58.5 114t-20.5 145t21 145.5t59 114.5t92 75t119 27t118.5 -26.5t91.5 -74.5t59 -114t21 -145zM565 349q0 66 -16.5 119.5t-45.5 92t-68 59t-85 20.5
q-45 0 -83.5 -20.5t-66.5 -58t-44 -91t-16 -119.5t16.5 -119.5t45 -92t67.5 -59t85 -20.5q36 0 66 12l-57 93l64 38l56 -92q38 36 60 96t22 142z" />
    <glyph glyph-name="R" unicode="R" horiz-adv-x="650" 
d="M587 502q0 -82 -45 -132t-120 -66l154 -304h-90l-150 298h-166v-298h-78v700h277q46 0 86 -12t69 -36.5t46 -61.5t17 -88zM509 499q0 65 -36.5 97.5t-106.5 32.5h-196v-261h186q78 0 115.5 32.5t37.5 98.5z" />
    <glyph glyph-name="S" unicode="S" horiz-adv-x="592" 
d="M522 184q0 -41 -15.5 -77t-45.5 -62t-73 -41t-98 -15q-72 0 -132.5 27.5t-102.5 69.5l52 58q40 -38 86 -61t100 -23q70 0 110.5 32t40.5 88q0 24 -8 44t-27.5 37t-51.5 33.5t-80 33.5q-57 20 -95.5 40.5t-62 44t-34 52.5t-10.5 67q0 42 16 75t44.5 56.5t69 35.5t89.5 12
q70 0 119.5 -20t93.5 -55l-50 -61q-38 32 -76.5 48.5t-91.5 16.5q-36 0 -62 -8.5t-42.5 -22.5t-24 -32.5t-7.5 -39.5q0 -22 6 -39.5t24 -34t50.5 -32.5t85.5 -35q58 -21 97 -42t62.5 -46t33.5 -55t10 -69z" />
    <glyph glyph-name="T" unicode="T" horiz-adv-x="588" 
d="M333 629v-629h-78v629h-206v71h490v-71h-206z" />
    <glyph glyph-name="U" unicode="U" horiz-adv-x="678" 
d="M591 286q0 -146 -62 -221.5t-189 -75.5q-126 0 -189.5 74.5t-63.5 220.5v416h78v-414q0 -226 179 -226q91 0 130 55t39 169v416h78v-414v0z" />
    <glyph glyph-name="V" unicode="V" horiz-adv-x="668" 
d="M377 0h-86l-238 700h82l156 -479q5 -16 11.5 -36t12.5 -39.5t11 -36.5t8 -26q3 9 8 26.5t11.5 37.5t13 40.5t11.5 35.5l157 477h80z" />
    <glyph glyph-name="W" unicode="W" horiz-adv-x="856" 
d="M659 0h-88l-110 448q-4 17 -9 38t-9.5 42t-8.5 41.5t-7 36.5q-3 -16 -7 -36t-8.5 -41t-9.5 -42t-9 -39l-110 -448h-86l-140 700h78l82 -450q3 -17 6.5 -39t7 -43.5t7 -41t5.5 -32.5q2 13 6 32t8.5 40.5t9.5 43t9 38.5l111 452h84l111 -452q4 -17 9 -38.5t9.5 -43
t8.5 -40.5t6 -32q2 13 5.5 32.5t7 41t7 43.5t6.5 39l82 450h76z" />
    <glyph glyph-name="X" unicode="X" horiz-adv-x="632" 
d="M487 0l-107 183q-20 34 -35.5 62t-28.5 54q-14 -27 -29 -55t-35 -61l-109 -183h-86l218 364l-200 336h88l90 -153q20 -33 35 -61t29 -55q13 26 28.5 54t35.5 62l90 153h86l-200 -334l218 -366h-88z" />
    <glyph glyph-name="Y" unicode="Y" horiz-adv-x="652" 
d="M365 278v-278h-78v277l-240 423h89l112 -201q21 -38 42.5 -78.5t36.5 -71.5q15 31 36.5 71.5t42.5 78.5l112 201h87z" />
    <glyph glyph-name="Z" unicode="Z" horiz-adv-x="628" 
d="M61 0v68l331 451q21 29 43 58t42 55h-79h-317v68h480v-68l-331 -451q-21 -29 -43 -58t-42 -55h79h337v-68h-500z" />
    <glyph glyph-name="bracketleft" unicode="[" horiz-adv-x="352" 
d="M95 -110v810h194v-61h-121v-688h121v-61h-194z" />
    <glyph glyph-name="backslash" unicode="\" horiz-adv-x="425" 
d="M325 -90l-299 880h74l299 -880h-74z" />
    <glyph glyph-name="bracketright" unicode="]" horiz-adv-x="352" 
d="M63 -110v61h121v688h-121v61h194v-810h-194z" />
    <glyph glyph-name="asciicircum" unicode="^" horiz-adv-x="558" 
d="M425 382l-147 236l-147 -236h-84l204 318h56l204 -318h-86z" />
    <glyph glyph-name="underscore" unicode="_" horiz-adv-x="500" 
d="M0 -153v63h500v-63h-500z" />
    <glyph glyph-name="grave" unicode="`" horiz-adv-x="500" 
d="M267 595l-151 160h107l103 -160h-59z" />
    <glyph glyph-name="a" unicode="a" horiz-adv-x="539" 
d="M384 0v64q-28 -30 -67.5 -52.5t-96.5 -22.5q-31 0 -61 8.5t-54 28t-38.5 51.5t-14.5 80q0 44 17 76t44.5 52.5t64 30t75.5 9.5q40 0 74 -8.5t57 -21.5v62q0 116 -114 116q-42 0 -76.5 -10.5t-66.5 -29.5l-28 61q35 19 80 30.5t96 11.5q85 0 134.5 -39.5t49.5 -130.5v-366
h-75zM384 235q-26 14 -56.5 22t-78.5 8q-58 0 -90.5 -26.5t-32.5 -76.5q0 -59 29.5 -85.5t77.5 -26.5q51 0 89 23t62 56v106z" />
    <glyph glyph-name="b" unicode="b" horiz-adv-x="559" 
d="M504 271q0 -70 -15.5 -122.5t-42.5 -88t-63 -53.5t-77 -18q-50 0 -85 19t-63 51v-59h-75v687l75 42v-268q28 30 66 52.5t92 22.5q39 0 73.5 -15.5t60 -47.5t40 -82.5t14.5 -119.5zM430 270q0 100 -35 150.5t-98 50.5q-42 0 -76.5 -20.5t-62.5 -55.5v-262q22 -33 58.5 -56
t83.5 -23q66 0 98 55t32 161z" />
    <glyph glyph-name="c" unicode="c" horiz-adv-x="495" 
d="M402 418q-29 26 -57.5 39.5t-68.5 13.5q-31 0 -57.5 -13.5t-46 -40t-30.5 -64.5t-11 -87q0 -97 39 -154.5t109 -57.5q38 0 66 15t55 41l45 -48q-33 -34 -73 -53.5t-96 -19.5q-43 0 -83 16.5t-70.5 50.5t-49 84.5t-18.5 119.5q0 73 20 125t52 85.5t72.5 49.5t81.5 16
q54 0 94.5 -17.5t71.5 -44.5z" />
    <glyph glyph-name="d" unicode="d" horiz-adv-x="559" 
d="M401 0v64q-28 -30 -66 -52.5t-92 -22.5q-39 0 -73.5 15.5t-60 47.5t-40 82.5t-14.5 119.5q0 70 15.5 122.5t42.5 88t63 53.5t77 18q50 0 85 -19t63 -51v221l75 42v-729h-75zM401 392q-22 33 -58.5 56t-83.5 23q-66 0 -98 -55t-32 -161q0 -100 35 -150.5t98 -50.5
q42 0 76.5 20.5t62.5 55.5v262z" />
    <glyph glyph-name="e" unicode="e" horiz-adv-x="540" 
d="M483 278q0 -14 -0.5 -23t-2.5 -18h-350q5 -85 43 -134t103 -49q46 0 77.5 13t67.5 37l35 -54q-24 -15 -45 -26.5t-43 -19t-46 -11.5t-54 -4q-36 0 -74 14t-68.5 46.5t-50.5 85.5t-20 130q0 63 16.5 113t45.5 85t68.5 54t86.5 19q51 0 90.5 -19t66.5 -53.5t40.5 -82
t13.5 -103.5zM413 298q-5 77 -39 125t-103 48q-59 0 -96.5 -42.5t-44.5 -130.5h283z" />
    <glyph glyph-name="f" unicode="f" horiz-adv-x="356" 
d="M309 646q-26 12 -61 12q-23 0 -38.5 -11t-15.5 -44v-78h103v-63h-103v-462h-75v462h-72v63h72v72q0 70 34.5 99.5t89.5 29.5q23 0 37.5 -2t28.5 -7v-71v0z" />
    <glyph glyph-name="g" unicode="g" horiz-adv-x="559" 
d="M476 47q0 -59 -14 -103t-45.5 -74t-82.5 -45.5t-124 -17.5l-24 57q66 2 107.5 12t65.5 30.5t33 52.5t9 78v27q-28 -30 -66 -52.5t-92 -22.5q-39 0 -73.5 15.5t-60 47.5t-40 82.5t-14.5 119.5q0 70 15.5 122.5t42.5 88t63 53.5t77 18q50 0 85 -19t63 -51v59h75v-478z
M401 392q-22 33 -58.5 56t-83.5 23q-66 0 -98 -55t-32 -161q0 -100 35 -150.5t98 -50.5q42 0 76.5 20.5t62.5 55.5v262z" />
    <glyph glyph-name="h" unicode="h" horiz-adv-x="567" 
d="M412 0v307q0 85 -30.5 124.5t-93.5 39.5q-55 0 -92.5 -39t-37.5 -125v-307h-75v687l75 42v-268q23 33 59 54t86 21q42 0 76 -12.5t58 -39t37 -67t13 -97.5v-320h-75z" />
    <glyph glyph-name="i" unicode="i" horiz-adv-x="251" 
d="M179 672q0 -22 -15.5 -37.5t-36.5 -15.5q-23 0 -39 15.5t-16 37.5q0 23 16 38.5t39 15.5q21 0 36.5 -15.5t15.5 -38.5zM88 0v525h75v-525h-75z" />
    <glyph glyph-name="j" unicode="j" horiz-adv-x="251" 
d="M179 672q0 -22 -15.5 -37.5t-36.5 -15.5q-23 0 -39 15.5t-16 37.5q0 23 16 38.5t39 15.5q21 0 36.5 -15.5t15.5 -38.5zM163 12q0 -45 -5.5 -78t-22.5 -57t-47.5 -41t-79.5 -29l-25 56q36 11 56.5 22t31.5 27.5t14 40.5t3 60v512h75v-513z" />
    <glyph glyph-name="k" unicode="k" horiz-adv-x="505" 
d="M382 0l-133 276l-91 -125v-151h-75v687l75 42v-453v-27l21 32l172 244h84l-138 -186l166 -339h-81z" />
    <glyph glyph-name="l" unicode="l" horiz-adv-x="251" 
d="M88 0v687l75 42v-729h-75z" />
    <glyph glyph-name="m" unicode="m" horiz-adv-x="848" 
d="M693 0v307q0 90 -28 127t-85 37q-53 0 -85 -38.5t-32 -125.5v-307h-75v307q0 90 -29 127t-84 37q-54 0 -85.5 -38.5t-31.5 -125.5v-307h-75v525h75v-64q20 34 53 54.5t80 20.5q56 0 90.5 -26t53.5 -64q12 19 26 35.5t33 28.5t43.5 19t56.5 7q80 0 127 -50.5t47 -165.5
v-320h-75z" />
    <glyph glyph-name="n" unicode="n" horiz-adv-x="567" 
d="M412 0v307q0 85 -30.5 124.5t-93.5 39.5q-55 0 -92.5 -39t-37.5 -125v-307h-75v525h75v-64q23 33 59 54t86 21q42 0 76 -12.5t58 -39t37 -67t13 -97.5v-320h-75z" />
    <glyph glyph-name="o" unicode="o" horiz-adv-x="566" 
d="M511 266q0 -67 -18 -118.5t-49 -87t-73 -53.5t-90 -18t-89.5 17.5t-71.5 52t-47.5 85.5t-17.5 118t18 118t49 85.5t73 52.5t90 18t89.5 -17t71.5 -51t47.5 -84.5t17.5 -117.5zM436 264q0 104 -42 155.5t-111 51.5t-110.5 -51.5t-41.5 -155.5t41.5 -157t110.5 -53t111 53
t42 157z" />
    <glyph glyph-name="p" unicode="p" horiz-adv-x="559" 
d="M504 271q0 -70 -15.5 -122.5t-42.5 -88t-63 -53.5t-77 -18q-50 0 -85 19t-63 51v-210l-75 -42v718h75v-64q28 30 66 52.5t92 22.5q39 0 73.5 -15.5t60 -47.5t40 -82.5t14.5 -119.5zM430 270q0 100 -35 150.5t-98 50.5q-42 0 -76.5 -20.5t-62.5 -55.5v-262
q22 -33 58.5 -56t83.5 -23q66 0 98 55t32 161z" />
    <glyph glyph-name="q" unicode="q" horiz-adv-x="559" 
d="M401 -193v257q-28 -30 -66 -52.5t-92 -22.5q-39 0 -73.5 15.5t-60 47.5t-40 82.5t-14.5 119.5q0 70 15.5 122.5t42.5 88t63 53.5t77 18q50 0 85 -19t63 -51v59h75v-676zM401 392q-22 33 -58.5 56t-83.5 23q-66 0 -98 -55t-32 -161q0 -100 35 -150.5t98 -50.5
q42 0 76.5 20.5t62.5 55.5v262z" />
    <glyph glyph-name="r" unicode="r" horiz-adv-x="407" 
d="M351 447q-16 9 -34.5 14.5t-44.5 5.5q-55 0 -84.5 -42t-29.5 -117v-308h-75v525h75v-65q18 32 53 54t77 22q29 0 48.5 -3.5t33.5 -9.5z" />
    <glyph glyph-name="s" unicode="s" horiz-adv-x="467" 
d="M408 137q0 -39 -15.5 -67t-40.5 -46t-57.5 -26.5t-66.5 -8.5q-54 0 -100.5 18.5t-84.5 48.5l44 55q32 -28 68 -43t75 -15q54 0 80 21.5t26 59.5q0 16 -6.5 29t-21 25.5t-38 25t-58.5 27.5q-39 17 -67.5 32.5t-46.5 33.5t-26.5 40.5t-8.5 54.5q0 30 12.5 54.5t34 42.5
t51.5 27.5t66 9.5q54 0 96 -15.5t72 -40.5l-42 -55q-31 24 -60 35.5t-71 11.5t-64.5 -18t-22.5 -47q0 -17 5.5 -29t19 -23.5t36 -23t55.5 -26.5q37 -17 66 -32t49.5 -33.5t31 -43t10.5 -59.5z" />
    <glyph glyph-name="t" unicode="t" horiz-adv-x="372" 
d="M179 462v-342q0 -35 11.5 -49t41.5 -14q23 0 39.5 3.5t34.5 11.5l-5 -65q-22 -9 -44.5 -13.5t-52.5 -4.5q-49 0 -74.5 26.5t-25.5 92.5v354h-65v63h65v162l75 42v-204h130v-63h-130z" />
    <glyph glyph-name="u" unicode="u" horiz-adv-x="567" 
d="M409 0v64q-23 -33 -59 -54t-86 -21q-42 0 -76 12.5t-58 39t-37 67t-13 97.5v320h75v-307q0 -85 30.5 -124.5t93.5 -39.5q55 0 92.5 39t37.5 125v307h75v-525h-75z" />
    <glyph glyph-name="v" unicode="v" horiz-adv-x="522" 
d="M294 0h-66l-188 525h80l134 -413l8 -25l8 25l134 413h78z" />
    <glyph glyph-name="w" unicode="w" horiz-adv-x="730" 
d="M544 0h-69l-95 352q-2 7 -4.5 16.5t-4.5 20t-4 20.5t-3 17q-1 -7 -3 -17t-4.5 -20.5t-4.5 -20t-4 -16.5l-95 -352h-67l-139 525h77l82 -347q1 -7 3 -16.5t4.5 -20t4 -20.5t3.5 -17q1 7 3.5 17t4.5 20.5t4.5 20t4.5 16.5l94 347h68l94 -347q2 -7 4.5 -16.5t4.5 -20
t4 -20.5t4 -17q1 7 3 17t4.5 20.5t4 20t3.5 16.5l82 347h75z" />
    <glyph glyph-name="x" unicode="x" horiz-adv-x="504" 
d="M370 0l-104 182l-16 29l-16 -29l-105 -182h-78l162 271l-151 254h83l93 -163l16 -29l16 29l94 163h78l-151 -252l162 -273h-83z" />
    <glyph glyph-name="y" unicode="y" horiz-adv-x="531" 
d="M230 -185h-75l72 191l-187 519h79l128 -381l18 -54l18 53l129 382h79z" />
    <glyph glyph-name="z" unicode="z" horiz-adv-x="492" 
d="M54 0v55l287 407v0v0h-264v63h349v-55l-287 -407v0v0h287v-63h-372z" />
    <glyph glyph-name="braceleft" unicode="{" horiz-adv-x="397" 
d="M344 -110q-106 3 -155 55t-49 158v86q0 44 -12.5 58t-46.5 14h-24v70h24q34 0 46.5 14t12.5 58v89q0 106 49 158t155 55v-63q-70 -8 -100 -40t-30 -101v-70q0 -31 -3 -53.5t-9.5 -38t-18 -26t-28.5 -18.5q17 -8 28.5 -18.5t18 -26.5t9.5 -38t3 -53v-65q0 -69 30 -101
t100 -40v-63v0z" />
    <glyph glyph-name="bar" unicode="|" horiz-adv-x="304" 
d="M116 -185v985h72v-985h-72z" />
    <glyph glyph-name="braceright" unicode="}" horiz-adv-x="397" 
d="M316 264q-34 0 -46.5 -14t-12.5 -58v-89q0 -106 -49 -158t-155 -55v63q70 8 100 40t30 101v70q0 31 3 53t9.5 38t18 26.5t28.5 18.5q-17 8 -28.5 18.5t-18 26t-9.5 38t-3 53.5v65q0 69 -30 101t-100 40v63q106 -3 155 -55t49 -158v-86q0 -44 12.5 -58t46.5 -14h24v-70
h-24z" />
    <glyph glyph-name="asciitilde" unicode="~" horiz-adv-x="552" 
d="M509 422q-26 -63 -57.5 -94.5t-85.5 -31.5q-30 0 -50.5 9.5t-43.5 24.5q-31 20 -51 29.5t-35 9.5q-27 0 -42.5 -18t-34.5 -61l-66 30q26 63 57.5 94.5t85.5 31.5q29 0 49.5 -9t44.5 -25q29 -19 48.5 -29t37.5 -10q27 0 42 17t35 62l66 -30v0z" />
    <glyph glyph-name="Adieresis" unicode="&#xc4;" horiz-adv-x="678" 
d="M543 0l-60 178h-289l-61 -178h-80l243 700h86l243 -700h-82zM382 479q-6 17 -12.5 37t-12.5 38.5t-10.5 35l-7.5 27.5q-3 -11 -7.5 -27t-10.5 -35t-13 -39.5t-13 -38.5l-77 -228h241zM492 808q0 -23 -16 -39t-39 -16t-39 16t-16 39t16 39.5t39 16.5t39 -16.5t16 -39.5z
M298 808q0 -23 -16 -39t-38 -16q-23 0 -39.5 16t-16.5 39t16.5 39.5t39.5 16.5q22 0 38 -16.5t16 -39.5z" />
    <glyph glyph-name="Aring" unicode="&#xc5;" horiz-adv-x="678" 
d="M543 0l-60 178h-289l-61 -178h-80l230 658q-29 15 -45.5 42.5t-16.5 62.5q0 24 8.5 45.5t24.5 37t37 24.5t47 9q25 0 46.5 -9t37.5 -24.5t24.5 -37t8.5 -45.5q0 -34 -16.5 -61.5t-44.5 -42.5l231 -659h-82zM408 763q0 31 -19 51t-51 20t-51 -20t-19 -51q0 -32 19 -52
t51 -20t51 20t19 52zM382 479q-6 17 -12.5 37t-12.5 38.5t-10.5 35l-7.5 27.5q-3 -11 -7.5 -27t-10.5 -35t-13 -39.5t-13 -38.5l-77 -228h241z" />
    <glyph glyph-name="Ccedilla" unicode="&#xc7;" horiz-adv-x="628" 
d="M574 105q-37 -51 -91.5 -82.5t-128.5 -33.5l-13 -40q11 7 24 10.5t31 3.5q10 0 22 -3.5t22 -12t16.5 -21.5t6.5 -32q0 -24 -9.5 -41t-26 -27t-38 -14.5t-45.5 -4.5q-31 0 -61.5 9.5t-56.5 26.5l19 32q42 -27 92 -27q39 0 53 13t14 30q0 15 -8 24t-24 9q-29 0 -48 -18
l-36 14l22 71q-57 7 -102.5 37.5t-78 77.5t-50 109t-17.5 134q0 78 21 144.5t58.5 114.5t90.5 75.5t116 27.5q142 0 223 -112l-62 -47q-34 46 -70 67t-93 21q-45 0 -83 -21.5t-65 -59.5t-42.5 -91t-15.5 -117t15.5 -117.5t43.5 -92t66 -60t82 -21.5q57 0 98 24t75 68l54 -47
v0z" />
    <glyph glyph-name="Eacute" unicode="&#xc9;" horiz-adv-x="587" 
d="M92 0v700h423v-71h-345v-220h200v-71h-200v-267h360v-71h-438zM314 745h-59l103 160h107z" />
    <glyph glyph-name="Ntilde" unicode="&#xd1;" horiz-adv-x="688" 
d="M523 0l-306 479q-6 9 -13 21.5l-14 25t-13.5 23.5t-9.5 18v-48v-519h-75v700h76l303 -488q6 -9 13 -21.5l14 -25t13.5 -23.5t9.5 -18v48v528h75v-700h-73zM527 882q0 -33 -8.5 -57.5t-22.5 -40.5t-32.5 -24t-38.5 -8t-37.5 6t-36.5 20q-18 14 -30 22.5t-20 13.5
t-14.5 6.5t-14.5 1.5q-14 0 -24 -14t-15 -53h-62q0 33 8.5 57.5t22.5 40.5t32.5 24t38.5 8t37.5 -6t36.5 -20q18 -14 30 -22.5t20.5 -13.5t15 -6.5t13.5 -1.5q16 0 25 16t14 51h62v0z" />
    <glyph glyph-name="Odieresis" unicode="&#xd6;" horiz-adv-x="705" 
d="M643 351q0 -79 -21 -145.5t-59.5 -114.5t-92.5 -75t-119 -27t-118.5 26.5t-91.5 74.5t-58.5 114t-20.5 145t21 145.5t59 114.5t92 75t119 27t118.5 -26.5t91.5 -74.5t59 -114t21 -145zM565 349q0 66 -16.5 119.5t-45.5 92t-68 59t-85 20.5q-45 0 -83.5 -20.5t-66.5 -58
t-44 -91t-16 -119.5t16.5 -119.5t45 -92t67.5 -59t85 -20.5q45 0 84 20.5t67 58t44 91t16 119.5zM504 808q0 -23 -16 -39t-39 -16t-39 16t-16 39t16 39.5t39 16.5t39 -16.5t16 -39.5zM310 808q0 -23 -16 -39t-38 -16q-23 0 -39.5 16t-16.5 39t16.5 39.5t39.5 16.5
q22 0 38 -16.5t16 -39.5z" />
    <glyph glyph-name="Udieresis" unicode="&#xdc;" horiz-adv-x="678" 
d="M591 286q0 -146 -62 -221.5t-189 -75.5q-126 0 -189.5 74.5t-63.5 220.5v416h78v-414q0 -226 179 -226q91 0 130 55t39 169v416h78v-414v0zM491 808q0 -23 -16 -39t-39 -16t-39 16t-16 39t16 39.5t39 16.5t39 -16.5t16 -39.5zM297 808q0 -23 -16 -39t-38 -16
q-23 0 -39.5 16t-16.5 39t16.5 39.5t39.5 16.5q22 0 38 -16.5t16 -39.5z" />
    <glyph glyph-name="aacute" unicode="&#xe1;" horiz-adv-x="539" 
d="M384 0v64q-28 -30 -67.5 -52.5t-96.5 -22.5q-31 0 -61 8.5t-54 28t-38.5 51.5t-14.5 80q0 44 17 76t44.5 52.5t64 30t75.5 9.5q40 0 74 -8.5t57 -21.5v62q0 116 -114 116q-42 0 -76.5 -10.5t-66.5 -29.5l-28 61q35 19 80 30.5t96 11.5q85 0 134.5 -39.5t49.5 -130.5v-366
h-75zM384 235q-26 14 -56.5 22t-78.5 8q-58 0 -90.5 -26.5t-32.5 -76.5q0 -59 29.5 -85.5t77.5 -26.5q51 0 89 23t62 56v106zM286 595h-59l103 160h107z" />
    <glyph glyph-name="agrave" unicode="&#xe0;" horiz-adv-x="539" 
d="M384 0v64q-28 -30 -67.5 -52.5t-96.5 -22.5q-31 0 -61 8.5t-54 28t-38.5 51.5t-14.5 80q0 44 17 76t44.5 52.5t64 30t75.5 9.5q40 0 74 -8.5t57 -21.5v62q0 116 -114 116q-42 0 -76.5 -10.5t-66.5 -29.5l-28 61q35 19 80 30.5t96 11.5q85 0 134.5 -39.5t49.5 -130.5v-366
h-75zM384 235q-26 14 -56.5 22t-78.5 8q-58 0 -90.5 -26.5t-32.5 -76.5q0 -59 29.5 -85.5t77.5 -26.5q51 0 89 23t62 56v106zM261 595l-151 160h107l103 -160h-59z" />
    <glyph glyph-name="acircumflex" unicode="&#xe2;" horiz-adv-x="539" 
d="M384 0v64q-28 -30 -67.5 -52.5t-96.5 -22.5q-31 0 -61 8.5t-54 28t-38.5 51.5t-14.5 80q0 44 17 76t44.5 52.5t64 30t75.5 9.5q40 0 74 -8.5t57 -21.5v62q0 116 -114 116q-42 0 -76.5 -10.5t-66.5 -29.5l-28 61q35 19 80 30.5t96 11.5q85 0 134.5 -39.5t49.5 -130.5v-366
h-75zM384 235q-26 14 -56.5 22t-78.5 8q-58 0 -90.5 -26.5t-32.5 -76.5q0 -59 29.5 -85.5t77.5 -26.5q51 0 89 23t62 56v106zM371 591l-101 103l-101 -103h-63l123 160h84l123 -160h-65z" />
    <glyph glyph-name="adieresis" unicode="&#xe4;" horiz-adv-x="539" 
d="M384 0v64q-28 -30 -67.5 -52.5t-96.5 -22.5q-31 0 -61 8.5t-54 28t-38.5 51.5t-14.5 80q0 44 17 76t44.5 52.5t64 30t75.5 9.5q40 0 74 -8.5t57 -21.5v62q0 116 -114 116q-42 0 -76.5 -10.5t-66.5 -29.5l-28 61q35 19 80 30.5t96 11.5q85 0 134.5 -39.5t49.5 -130.5v-366
h-75zM384 235q-26 14 -56.5 22t-78.5 8q-58 0 -90.5 -26.5t-32.5 -76.5q0 -59 29.5 -85.5t77.5 -26.5q51 0 89 23t62 56v106zM422 654q0 -23 -16 -39t-39 -16t-39 16t-16 39t16 39.5t39 16.5t39 -16.5t16 -39.5zM228 654q0 -23 -16 -39t-38 -16q-23 0 -39.5 16t-16.5 39
t16.5 39.5t39.5 16.5q22 0 38 -16.5t16 -39.5z" />
    <glyph glyph-name="atilde" unicode="&#xe3;" horiz-adv-x="539" 
d="M384 0v64q-28 -30 -67.5 -52.5t-96.5 -22.5q-31 0 -61 8.5t-54 28t-38.5 51.5t-14.5 80q0 44 17 76t44.5 52.5t64 30t75.5 9.5q40 0 74 -8.5t57 -21.5v62q0 116 -114 116q-42 0 -76.5 -10.5t-66.5 -29.5l-28 61q35 19 80 30.5t96 11.5q85 0 134.5 -39.5t49.5 -130.5v-366
h-75zM384 235q-26 14 -56.5 22t-78.5 8q-58 0 -90.5 -26.5t-32.5 -76.5q0 -59 29.5 -85.5t77.5 -26.5q51 0 89 23t62 56v106zM448 728q0 -33 -8.5 -57.5t-22.5 -40.5t-32.5 -24t-38.5 -8t-37.5 6t-36.5 20q-18 14 -30 22.5t-20 13.5t-14.5 6.5t-14.5 1.5q-14 0 -24 -14
t-15 -53h-62q0 33 8.5 57.5t22.5 40.5t32.5 24t38.5 8t37.5 -6t36.5 -20q18 -14 30 -22.5t20.5 -13.5t15 -6.5t13.5 -1.5q16 0 25 16t14 51h62v0z" />
    <glyph glyph-name="aring" unicode="&#xe5;" horiz-adv-x="539" 
d="M384 0v64q-28 -30 -67.5 -52.5t-96.5 -22.5q-31 0 -61 8.5t-54 28t-38.5 51.5t-14.5 80q0 44 17 76t44.5 52.5t64 30t75.5 9.5q40 0 74 -8.5t57 -21.5v62q0 116 -114 116q-42 0 -76.5 -10.5t-66.5 -29.5l-28 61q35 19 80 30.5t96 11.5q85 0 134.5 -39.5t49.5 -130.5v-366
h-75zM384 235q-26 14 -56.5 22t-78.5 8q-58 0 -90.5 -26.5t-32.5 -76.5q0 -59 29.5 -85.5t77.5 -26.5q51 0 89 23t62 56v106zM388 716q0 -24 -8.5 -45.5t-24.5 -37.5t-37.5 -25t-46.5 -9q-26 0 -47 9t-37 25t-24.5 37.5t-8.5 45.5t8.5 45.5t24.5 37t37 24.5t47 9
q25 0 46.5 -9t37.5 -24.5t24.5 -37t8.5 -45.5zM341 716q0 31 -19 51t-51 20t-51 -20t-19 -51q0 -32 19 -52t51 -20t51 20t19 52z" />
    <glyph glyph-name="ccedilla" unicode="&#xe7;" horiz-adv-x="495" 
d="M402 418q-29 26 -57.5 39.5t-68.5 13.5q-31 0 -57.5 -13.5t-46 -40t-30.5 -64.5t-11 -87q0 -97 39 -154.5t109 -57.5q38 0 66 15t55 41l45 -48q-33 -34 -72.5 -53.5t-95.5 -19.5l-13 -40q11 7 24 10.5t31 3.5q10 0 22 -3.5t22 -12t16.5 -21.5t6.5 -32q0 -24 -9.5 -41
t-26 -27t-38 -14.5t-45.5 -4.5q-31 0 -61.5 9.5t-56.5 26.5l19 32q42 -27 92 -27q39 0 53 13t14 30q0 15 -8 24t-24 9q-29 0 -48 -18l-36 14l23 73q-37 7 -69.5 27t-57 53.5t-38.5 80t-14 106.5q0 73 20 125t52 85.5t72.5 49.5t81.5 16q54 0 94.5 -17.5t71.5 -44.5z" />
    <glyph glyph-name="eacute" unicode="&#xe9;" horiz-adv-x="540" 
d="M483 278q0 -14 -0.5 -23t-2.5 -18h-350q5 -85 43 -134t103 -49q46 0 77.5 13t67.5 37l35 -54q-24 -15 -45 -26.5t-43 -19t-46 -11.5t-54 -4q-36 0 -74 14t-68.5 46.5t-50.5 85.5t-20 130q0 63 16.5 113t45.5 85t68.5 54t86.5 19q51 0 90.5 -19t66.5 -53.5t40.5 -82
t13.5 -103.5zM413 298q-5 77 -39 125t-103 48q-59 0 -96.5 -42.5t-44.5 -130.5h283zM286 595h-59l103 160h107z" />
    <glyph glyph-name="egrave" unicode="&#xe8;" horiz-adv-x="540" 
d="M483 278q0 -14 -0.5 -23t-2.5 -18h-350q5 -85 43 -134t103 -49q46 0 77.5 13t67.5 37l35 -54q-24 -15 -45 -26.5t-43 -19t-46 -11.5t-54 -4q-36 0 -74 14t-68.5 46.5t-50.5 85.5t-20 130q0 63 16.5 113t45.5 85t68.5 54t86.5 19q51 0 90.5 -19t66.5 -53.5t40.5 -82
t13.5 -103.5zM413 298q-5 77 -39 125t-103 48q-59 0 -96.5 -42.5t-44.5 -130.5h283zM261 595l-151 160h107l103 -160h-59z" />
    <glyph glyph-name="ecircumflex" unicode="&#xea;" horiz-adv-x="540" 
d="M483 278q0 -14 -0.5 -23t-2.5 -18h-350q5 -85 43 -134t103 -49q46 0 77.5 13t67.5 37l35 -54q-24 -15 -45 -26.5t-43 -19t-46 -11.5t-54 -4q-36 0 -74 14t-68.5 46.5t-50.5 85.5t-20 130q0 63 16.5 113t45.5 85t68.5 54t86.5 19q51 0 90.5 -19t66.5 -53.5t40.5 -82
t13.5 -103.5zM413 298q-5 77 -39 125t-103 48q-59 0 -96.5 -42.5t-44.5 -130.5h283zM371 586l-101 103l-101 -103h-63l123 160h84l123 -160h-65z" />
    <glyph glyph-name="edieresis" unicode="&#xeb;" horiz-adv-x="540" 
d="M483 278q0 -14 -0.5 -23t-2.5 -18h-350q5 -85 43 -134t103 -49q46 0 77.5 13t67.5 37l35 -54q-24 -15 -45 -26.5t-43 -19t-46 -11.5t-54 -4q-36 0 -74 14t-68.5 46.5t-50.5 85.5t-20 130q0 63 16.5 113t45.5 85t68.5 54t86.5 19q51 0 90.5 -19t66.5 -53.5t40.5 -82
t13.5 -103.5zM413 298q-5 77 -39 125t-103 48q-59 0 -96.5 -42.5t-44.5 -130.5h283zM423 654q0 -23 -16 -39t-39 -16t-39 16t-16 39t16 39.5t39 16.5t39 -16.5t16 -39.5zM229 654q0 -23 -16 -39t-38 -16q-23 0 -39.5 16t-16.5 39t16.5 39.5t39.5 16.5q22 0 38 -16.5
t16 -39.5z" />
    <glyph glyph-name="iacute" unicode="&#xed;" horiz-adv-x="251" 
d="M88 0v525h75v-525h-75zM153 595h-59l103 160h107z" />
    <glyph glyph-name="igrave" unicode="&#xec;" horiz-adv-x="251" 
d="M-52 0v525h75v-525h-75zM99 595l-151 160h107l103 -160h-59z" />
    <glyph glyph-name="icircumflex" unicode="&#xee;" horiz-adv-x="251" 
d="M-40 0v525h75v-525h-75zM225 580l-101 103l-101 -103h-63l123 160h84l123 -160h-65z" />
    <glyph glyph-name="idieresis" unicode="&#xef;" horiz-adv-x="251" 
d="M-27 0v525h75v-525h-75zM277 648q0 -23 -16 -39t-39 -16t-39 16t-16 39t16 39.5t39 16.5t39 -16.5t16 -39.5zM83 648q0 -23 -16 -39t-38 -16q-23 0 -39.5 16t-16.5 39t16.5 39.5t39.5 16.5q22 0 38 -16.5t16 -39.5z" />
    <glyph glyph-name="ntilde" unicode="&#xf1;" horiz-adv-x="567" 
d="M412 0v307q0 85 -30.5 124.5t-93.5 39.5q-55 0 -92.5 -39t-37.5 -125v-307h-75v525h75v-64q23 33 59 54t86 21q42 0 76 -12.5t58 -39t37 -67t13 -97.5v-320h-75zM458 728q0 -33 -8.5 -57.5t-22.5 -40.5t-32.5 -24t-38.5 -8t-37.5 6t-36.5 20q-18 14 -30 22.5t-20 13.5
t-14.5 6.5t-14.5 1.5q-14 0 -24 -14t-15 -53h-62q0 33 8.5 57.5t22.5 40.5t32.5 24t38.5 8t37.5 -6t36.5 -20q18 -14 30 -22.5t20.5 -13.5t15 -6.5t13.5 -1.5q16 0 25 16t14 51h62v0z" />
    <glyph glyph-name="oacute" unicode="&#xf3;" horiz-adv-x="566" 
d="M511 266q0 -67 -18 -118.5t-49 -87t-73 -53.5t-90 -18t-89.5 17.5t-71.5 52t-47.5 85.5t-17.5 118t18 118t49 85.5t73 52.5t90 18t89.5 -17t71.5 -51t47.5 -84.5t17.5 -117.5zM436 264q0 104 -42 155.5t-111 51.5t-110.5 -51.5t-41.5 -155.5t41.5 -157t110.5 -53t111 53
t42 157zM294 595h-59l103 160h107z" />
    <glyph glyph-name="ograve" unicode="&#xf2;" horiz-adv-x="566" 
d="M511 266q0 -67 -18 -118.5t-49 -87t-73 -53.5t-90 -18t-89.5 17.5t-71.5 52t-47.5 85.5t-17.5 118t18 118t49 85.5t73 52.5t90 18t89.5 -17t71.5 -51t47.5 -84.5t17.5 -117.5zM436 264q0 104 -42 155.5t-111 51.5t-110.5 -51.5t-41.5 -155.5t41.5 -157t110.5 -53t111 53
t42 157zM268 595l-151 160h107l103 -160h-59z" />
    <glyph glyph-name="ocircumflex" unicode="&#xf4;" horiz-adv-x="566" 
d="M511 266q0 -67 -18 -118.5t-49 -87t-73 -53.5t-90 -18t-89.5 17.5t-71.5 52t-47.5 85.5t-17.5 118t18 118t49 85.5t73 52.5t90 18t89.5 -17t71.5 -51t47.5 -84.5t17.5 -117.5zM436 264q0 104 -42 155.5t-111 51.5t-110.5 -51.5t-41.5 -155.5t41.5 -157t110.5 -53t111 53
t42 157zM382 586l-101 103l-101 -103h-63l123 160h84l123 -160h-65z" />
    <glyph glyph-name="odieresis" unicode="&#xf6;" horiz-adv-x="566" 
d="M511 266q0 -67 -18 -118.5t-49 -87t-73 -53.5t-90 -18t-89.5 17.5t-71.5 52t-47.5 85.5t-17.5 118t18 118t49 85.5t73 52.5t90 18t89.5 -17t71.5 -51t47.5 -84.5t17.5 -117.5zM436 264q0 104 -42 155.5t-111 51.5t-110.5 -51.5t-41.5 -155.5t41.5 -157t110.5 -53t111 53
t42 157zM434 649q0 -23 -16 -39t-39 -16t-39 16t-16 39t16 39.5t39 16.5t39 -16.5t16 -39.5zM240 649q0 -23 -16 -39t-38 -16q-23 0 -39.5 16t-16.5 39t16.5 39.5t39.5 16.5q22 0 38 -16.5t16 -39.5z" />
    <glyph glyph-name="otilde" unicode="&#xf5;" horiz-adv-x="566" 
d="M511 266q0 -67 -18 -118.5t-49 -87t-73 -53.5t-90 -18t-89.5 17.5t-71.5 52t-47.5 85.5t-17.5 118t18 118t49 85.5t73 52.5t90 18t89.5 -17t71.5 -51t47.5 -84.5t17.5 -117.5zM436 264q0 104 -42 155.5t-111 51.5t-110.5 -51.5t-41.5 -155.5t41.5 -157t110.5 -53t111 53
t42 157zM460 728q0 -33 -8.5 -57.5t-22.5 -40.5t-32.5 -24t-38.5 -8t-37.5 6t-36.5 20q-18 14 -30 22.5t-20 13.5t-14.5 6.5t-14.5 1.5q-14 0 -24 -14t-15 -53h-62q0 33 8.5 57.5t22.5 40.5t32.5 24t38.5 8t37.5 -6t36.5 -20q18 -14 30 -22.5t20.5 -13.5t15 -6.5t13.5 -1.5
q16 0 25 16t14 51h62v0z" />
    <glyph glyph-name="uacute" unicode="&#xfa;" horiz-adv-x="567" 
d="M409 0v64q-23 -33 -59 -54t-86 -21q-42 0 -76 12.5t-58 39t-37 67t-13 97.5v320h75v-307q0 -85 30.5 -124.5t93.5 -39.5q55 0 92.5 39t37.5 125v307h75v-525h-75zM300 595h-59l103 160h107z" />
    <glyph glyph-name="ugrave" unicode="&#xf9;" horiz-adv-x="567" 
d="M409 0v64q-23 -33 -59 -54t-86 -21q-42 0 -76 12.5t-58 39t-37 67t-13 97.5v320h75v-307q0 -85 30.5 -124.5t93.5 -39.5q55 0 92.5 39t37.5 125v307h75v-525h-75zM260 595l-151 160h107l103 -160h-59z" />
    <glyph glyph-name="ucircumflex" unicode="&#xfb;" horiz-adv-x="567" 
d="M409 0v64q-23 -33 -59 -54t-86 -21q-42 0 -76 12.5t-58 39t-37 67t-13 97.5v320h75v-307q0 -85 30.5 -124.5t93.5 -39.5q55 0 92.5 39t37.5 125v307h75v-525h-75zM383 595l-101 103l-101 -103h-63l123 160h84l123 -160h-65z" />
    <glyph glyph-name="udieresis" unicode="&#xfc;" horiz-adv-x="567" 
d="M409 0v64q-23 -33 -59 -54t-86 -21q-42 0 -76 12.5t-58 39t-37 67t-13 97.5v320h75v-307q0 -85 30.5 -124.5t93.5 -39.5q55 0 92.5 39t37.5 125v307h75v-525h-75zM435 658q0 -23 -16 -39t-39 -16t-39 16t-16 39t16 39.5t39 16.5t39 -16.5t16 -39.5zM241 658
q0 -23 -16 -39t-38 -16q-23 0 -39.5 16t-16.5 39t16.5 39.5t39.5 16.5q22 0 38 -16.5t16 -39.5z" />
    <glyph glyph-name="dagger" unicode="&#x2020;" horiz-adv-x="573" 
d="M321 398v-498h-69v498h-197v66h197v236h69v-236h197v-66h-197z" />
    <glyph glyph-name="degree" unicode="&#xb0;" horiz-adv-x="476" 
d="M425 520q0 -41 -14 -76.5t-38.5 -61.5t-59 -40.5t-75.5 -14.5t-75 14.5t-59 40.5t-39 61.5t-14 76.5q0 40 14 75t39 60.5t59 40.5t75 15t75.5 -15t59 -40.5t38.5 -60.5t14 -75zM359 520q0 56 -33 92.5t-88 36.5q-27 0 -49.5 -10t-38 -27t-24.5 -40.5t-9 -51.5
q0 -59 33.5 -95t87.5 -36q55 0 88 36t33 95z" />
    <glyph glyph-name="cent" unicode="&#xa2;" horiz-adv-x="495" 
d="M404 514q-32 27 -59.5 39t-68.5 12q-31 0 -57.5 -13.5t-46 -40t-30.5 -64.5t-11 -87q0 -97 39 -154.5t109 -57.5q38 0 66.5 14.5t55.5 40.5l44 -47q-27 -28 -58.5 -46t-72.5 -24v-97h-77v97q-37 7 -70 27t-58 53t-39.5 80t-14.5 108q0 63 15 110.5t40.5 81t58 53
t68.5 27.5v94h77v-92q42 -5 74.5 -21t58.5 -39z" />
    <glyph glyph-name="sterling" unicode="&#xa3;" horiz-adv-x="611" 
d="M84 0v70q22 26 40 50.5t31 50.5t20 56t7 66h-98v68h87q-6 16 -14.5 31t-18.5 32q-17 28 -25.5 52t-8.5 60q0 42 17.5 75t47.5 55t71 33.5t88 11.5q66 0 117.5 -22.5t98.5 -64.5l-47 -57q-38 36 -80 55t-91 19q-73 0 -109 -31t-36 -73q0 -24 8 -46t24 -48
q10 -17 19.5 -37.5t16.5 -44.5h152v-68h-145q-1 -38 -8.5 -70t-19 -59t-26 -50t-30.5 -43h380v-71h-468z" />
    <glyph glyph-name="section" unicode="&#xa7;" horiz-adv-x="628" 
d="M573 268q0 -30 -9.5 -55.5t-26 -47t-39.5 -39t-49 -32.5q26 -20 40 -45.5t14 -60.5t-14.5 -63t-40 -48t-61 -30.5t-78.5 -10.5q-57 0 -103.5 18.5t-89.5 53.5l46 56q20 -17 38 -28t36.5 -17.5t39 -9.5t45.5 -3q46 0 75.5 20.5t29.5 55.5q0 17 -6.5 31.5t-23 27t-44 23.5
t-69.5 22q-66 16 -109.5 34.5t-70 41t-37.5 51t-11 66.5q0 30 9.5 55.5t26 47t39.5 39t49 32.5q-26 20 -40 45.5t-14 60.5t14.5 63t40 48t61 30.5t78.5 10.5q57 0 103.5 -18.5t89.5 -53.5l-46 -56q-20 16 -38 27.5t-36.5 18t-39 9.5t-45.5 3q-46 0 -75.5 -20.5t-29.5 -55.5
q0 -17 6.5 -31.5t23 -27t44 -24t69.5 -21.5q66 -17 109.5 -35t70 -40.5t37.5 -51.5t11 -66zM496 262q0 21 -6 39t-23 33t-48 28.5t-81 25.5q-26 7 -50 14t-46 16q-52 -24 -81 -58t-29 -75q0 -21 6 -39t23 -33t48 -28.5t81 -25.5q26 -7 50 -14t46 -16q52 24 81 58t29 75z" />
    <glyph glyph-name="bullet" unicode="&#x2022;" horiz-adv-x="374" 
d="M294 366q0 -22 -8.5 -41.5t-23 -34t-34 -23t-41.5 -8.5t-41.5 8.5t-34 23t-23 34t-8.5 41.5t8.5 42t23 35t34 23.5t41.5 8.5t41.5 -8.5t34 -23.5t23 -35t8.5 -42z" />
    <glyph glyph-name="paragraph" unicode="&#xb6;" horiz-adv-x="688" 
d="M518 -185v817h-91v-817h-77v446h-76q-46 0 -87.5 14.5t-72.5 42.5t-49 69t-18 94q0 52 18.5 93t49.5 69t72 42.5t87 14.5h321v-885h-77z" />
    <glyph glyph-name="germandbls" unicode="&#xdf;" horiz-adv-x="572" 
d="M517 226q0 -62 -20.5 -105t-56 -70t-82.5 -39t-100 -12h-15v66h18q87 0 134 36t47 117q0 39 -15 66.5t-39.5 45.5t-57 26t-67.5 8h-20v65h23q58 0 90 29t32 89q0 52 -31.5 82.5t-84.5 30.5q-50 0 -82 -33.5t-32 -98.5v-680l-75 -42v709q0 103 52 156.5t139 53.5
q43 0 78 -13.5t59.5 -37.5t38 -56.5t13.5 -69.5q0 -31 -7.5 -54.5t-20.5 -41t-29 -29.5t-34 -20q26 -6 52 -19t46.5 -34.5t33.5 -52t13 -72.5z" />
    <glyph glyph-name="registered" unicode="&#xae;" horiz-adv-x="836" 
d="M779 350q0 -81 -27.5 -147.5t-76 -114t-114.5 -73.5t-143 -26t-143 26t-114.5 73.5t-76 114t-27.5 147.5t27.5 147.5t76 114t114.5 73.5t143 26t143 -26t114.5 -73.5t76 -114t27.5 -147.5zM730 350q0 70 -24 128t-66 99.5t-99 64.5t-123 23t-123 -23t-99 -64.5t-66 -99.5
t-24 -128t24 -128t66 -99.5t99 -64.5t123 -23t123 23t99 64.5t66 99.5t24 128zM578 441q0 -45 -25 -74t-67 -39l89 -171h-62l-86 167h-86v-167h-53v399h162q54 0 91 -28t37 -87zM525 441q0 34 -20 51t-58 17h-106v-135h100q84 0 84 67z" />
    <glyph glyph-name="copyright" unicode="&#xa9;" horiz-adv-x="836" 
d="M779 350q0 -81 -27.5 -147.5t-76 -114t-114.5 -73.5t-143 -26t-143 26t-114.5 73.5t-76 114t-27.5 147.5t27.5 147.5t76 114t114.5 73.5t143 26t143 -26t114.5 -73.5t76 -114t27.5 -147.5zM730 350q0 70 -24 128t-66 99.5t-99 64.5t-123 23t-123 -23t-99 -64.5t-66 -99.5
t-24 -128t24 -128t66 -99.5t99 -64.5t123 -23t123 23t99 64.5t66 99.5t24 128zM557 212q-25 -33 -59.5 -51.5t-79.5 -18.5q-38 0 -68.5 16t-52 43.5t-33.5 65.5t-12 82q0 45 12.5 83.5t34.5 66t53 43.5t68 16q43 0 75.5 -16.5t58.5 -51.5l-42 -33q-22 28 -42 39.5t-51 11.5
q-25 0 -45.5 -11.5t-35.5 -32.5t-23.5 -50t-8.5 -63q0 -35 8.5 -64t23.5 -50t36 -33t45 -12q32 0 54.5 13.5t44.5 40.5z" />
    <glyph glyph-name="trademark" unicode="&#x2122;" horiz-adv-x="762" 
d="M672 301v265v43q-3 -12 -10 -31t-14 -36l-105 -252l-102 252q-7 16 -14 35.5t-10 31.5v-43v-265h-45v399h52l94 -239q8 -18 15.5 -39t11.5 -34q4 13 11.5 34t14.5 39l95 239h51v-399h-45zM186 658v-357h-48v357h-116v42h280v-42h-116z" />
    <glyph glyph-name="acute" unicode="&#xb4;" horiz-adv-x="500" 
d="M233 595h-59l103 160h107z" />
    <glyph glyph-name="dieresis" unicode="&#xa8;" horiz-adv-x="500" 
d="M402 658q0 -23 -16 -39t-39 -16t-39 16t-16 39t16 39.5t39 16.5t39 -16.5t16 -39.5zM208 658q0 -23 -16 -39t-38 -16q-23 0 -39.5 16t-16.5 39t16.5 39.5t39.5 16.5q22 0 38 -16.5t16 -39.5z" />
    <glyph glyph-name="notequal" unicode="&#x2260;" 
d="M542 224q-6 -4 -9 -3q-5 2 -2 10l30 80h-161v-179l80 30q8 3 10 -2q1 -3 -3 -9l-121 -166l-121 166q-4 6 -3 9q2 5 10 2l80 -30v179h-165l30 -80q3 -8 -2 -10q-3 -1 -9 3l-166 121l166 121q6 4 9 3q5 -2 2 -10l-30 -80h165v189l-80 -30q-8 -3 -10 2q-1 3 3 9l121 166
l121 -166q4 -6 3 -9q-2 -5 -10 -2l-80 30v-189h161l-30 80q-3 8 2 10q3 1 9 -3l166 -121z" />
    <glyph glyph-name="AE" unicode="&#xc6;" horiz-adv-x="998" 
d="M503 0v178h-273l-117 -178h-89l470 700h432v-71h-349v-220h204v-71h-204v-267h364v-71h-438zM505 600q-5 -8 -13 -20.5t-17 -26.5l-18 -28t-17 -26l-164 -250h227v222q0 16 0.5 34.5t0.5 36t0.5 32.5t0.5 26z" />
    <glyph glyph-name="Oslash" unicode="&#xd8;" horiz-adv-x="705" 
d="M643 351q0 -79 -21 -145.5t-59.5 -114.5t-92.5 -75t-119 -27q-69 0 -124 29l-31 -68h-69l48 104q-54 48 -83.5 123.5t-29.5 171.5q0 79 21 145.5t59 114.5t92 75t119 27q59 0 111 -23l28 62h69l-43 -95q59 -46 92 -124.5t33 -179.5zM568 349q0 78 -22 138t-60 98
l-229 -501q43 -27 97 -27q46 0 85 20.5t67.5 58.5t45 92t16.5 121zM434 623q-40 20 -84 20q-46 0 -85 -20.5t-67.5 -58.5t-44.5 -92t-16 -121q0 -72 19 -129t52 -95z" />
    <glyph glyph-name="infinity" unicode="&#x221e;" 
d="M542 224q-6 -4 -9 -3q-5 2 -2 10l30 80h-161v-179l80 30q8 3 10 -2q1 -3 -3 -9l-121 -166l-121 166q-4 6 -3 9q2 5 10 2l80 -30v179h-165l30 -80q3 -8 -2 -10q-3 -1 -9 3l-166 121l166 121q6 4 9 3q5 -2 2 -10l-30 -80h165v189l-80 -30q-8 -3 -10 2q-1 3 3 9l121 166
l121 -166q4 -6 3 -9q-2 -5 -10 -2l-80 30v-189h161l-30 80q-3 8 2 10q3 1 9 -3l166 -121z" />
    <glyph glyph-name="plusminus" unicode="&#xb1;" 
d="M542 224q-6 -4 -9 -3q-5 2 -2 10l30 80h-161v-179l80 30q8 3 10 -2q1 -3 -3 -9l-121 -166l-121 166q-4 6 -3 9q2 5 10 2l80 -30v179h-165l30 -80q3 -8 -2 -10q-3 -1 -9 3l-166 121l166 121q6 4 9 3q5 -2 2 -10l-30 -80h165v189l-80 -30q-8 -3 -10 2q-1 3 3 9l121 166
l121 -166q4 -6 3 -9q-2 -5 -10 -2l-80 30v-189h161l-30 80q-3 8 2 10q3 1 9 -3l166 -121z" />
    <glyph glyph-name="lessequal" unicode="&#x2264;" 
d="M542 224q-6 -4 -9 -3q-5 2 -2 10l30 80h-161v-179l80 30q8 3 10 -2q1 -3 -3 -9l-121 -166l-121 166q-4 6 -3 9q2 5 10 2l80 -30v179h-165l30 -80q3 -8 -2 -10q-3 -1 -9 3l-166 121l166 121q6 4 9 3q5 -2 2 -10l-30 -80h165v189l-80 -30q-8 -3 -10 2q-1 3 3 9l121 166
l121 -166q4 -6 3 -9q-2 -5 -10 -2l-80 30v-189h161l-30 80q-3 8 2 10q3 1 9 -3l166 -121z" />
    <glyph glyph-name="greaterequal" unicode="&#x2265;" 
d="M542 224q-6 -4 -9 -3q-5 2 -2 10l30 80h-161v-179l80 30q8 3 10 -2q1 -3 -3 -9l-121 -166l-121 166q-4 6 -3 9q2 5 10 2l80 -30v179h-165l30 -80q3 -8 -2 -10q-3 -1 -9 3l-166 121l166 121q6 4 9 3q5 -2 2 -10l-30 -80h165v189l-80 -30q-8 -3 -10 2q-1 3 3 9l121 166
l121 -166q4 -6 3 -9q-2 -5 -10 -2l-80 30v-189h161l-30 80q-3 8 2 10q3 1 9 -3l166 -121z" />
    <glyph glyph-name="yen" unicode="&#xa5;" horiz-adv-x="612" 
d="M345 278v-78h155v-69h-155v-131h-78v131h-164v69h164v77l-230 423h89l104 -201q20 -39 41.5 -81.5t35.5 -73.5q7 15 16.5 34.5t19.5 40t20.5 41t20.5 39.5l104 201h87z" />
    <glyph glyph-name="mu" unicode="&#xb5;" horiz-adv-x="770" 
d="M574 228q-7 -5 -11 -2q-6 4 -3 9l30 75h-410l30 -75q3 -5 -3 -9q-4 -3 -11 2l-176 117l176 117q7 5 11 2q6 -4 3 -9l-30 -75h410l-30 75q-3 5 3 9q4 3 11 -2l176 -117z" />
    <glyph glyph-name="partialdiff" unicode="&#x2202;" horiz-adv-x="366" 
d="M302 172q3 -4 -2 -11l-117 -176l-117 176q-5 7 -2 11q4 6 9 3l75 -30v410l-75 -30q-5 -3 -9 3q-3 4 2 11l117 176l117 -176q5 -7 2 -11q-4 -6 -9 -3l-75 30v-410l75 30q5 3 9 -3z" />
    <glyph glyph-name="summation" unicode="&#x2211;" 
d="M542 224q-6 -4 -9 -3q-5 2 -2 10l30 80h-161v-179l80 30q8 3 10 -2q1 -3 -3 -9l-121 -166l-121 166q-4 6 -3 9q2 5 10 2l80 -30v179h-165l30 -80q3 -8 -2 -10q-3 -1 -9 3l-166 121l166 121q6 4 9 3q5 -2 2 -10l-30 -80h165v189l-80 -30q-8 -3 -10 2q-1 3 3 9l121 166
l121 -166q4 -6 3 -9q-2 -5 -10 -2l-80 30v-189h161l-30 80q-3 8 2 10q3 1 9 -3l166 -121z" />
    <glyph glyph-name="product" unicode="&#x220f;" 
d="M542 224q-6 -4 -9 -3q-5 2 -2 10l30 80h-161v-179l80 30q8 3 10 -2q1 -3 -3 -9l-121 -166l-121 166q-4 6 -3 9q2 5 10 2l80 -30v179h-165l30 -80q3 -8 -2 -10q-3 -1 -9 3l-166 121l166 121q6 4 9 3q5 -2 2 -10l-30 -80h165v189l-80 -30q-8 -3 -10 2q-1 3 3 9l121 166
l121 -166q4 -6 3 -9q-2 -5 -10 -2l-80 30v-189h161l-30 80q-3 8 2 10q3 1 9 -3l166 -121z" />
    <glyph glyph-name="pi" unicode="&#x3c0;" horiz-adv-x="836" 
d="M779 350q0 -81 -27.5 -147.5t-76 -114t-114.5 -73.5t-143 -26t-143 26t-114.5 73.5t-76 114t-27.5 147.5t27.5 147.5t76 114t114.5 73.5t143 26t143 -26t114.5 -73.5t76 -114t27.5 -147.5zM730 350q0 70 -24 128t-66 99.5t-99 64.5t-123 23t-123 -23t-99 -64.5t-66 -99.5
t-24 -128t24 -128t66 -99.5t99 -64.5t123 -23t123 23t99 64.5t66 99.5t24 128zM586 426q0 -60 -38.5 -91.5t-100.5 -31.5h-92v-154h-53v399h153q28 0 52 -7.5t41.5 -22.5t27.5 -38t10 -54zM534 427q0 39 -22 56.5t-61 17.5h-96v-149h90q44 0 66.5 17t22.5 58z" />
    <glyph glyph-name="integral" unicode="&#x222b;" horiz-adv-x="559" 
d="M401 0v64q-28 -30 -66 -52.5t-92 -22.5q-39 0 -73.5 15.5t-60 47.5t-40 82.5t-14.5 119.5q0 70 15.5 122.5t42.5 88t63 53.5t77 18q50 0 85 -19t63 -51v59h75v-525h-75zM401 392q-22 33 -58.5 56t-83.5 23q-66 0 -98 -55t-32 -161q0 -100 35 -150.5t98 -50.5
q42 0 76.5 20.5t62.5 55.5v262z" />
    <glyph glyph-name="ordfeminine" unicode="&#xaa;" horiz-adv-x="455" 
d="M312 282v44q-22 -22 -53 -37.5t-74 -15.5q-25 0 -50 7t-44.5 23t-31.5 42t-12 64q0 36 13.5 61.5t36 42t52.5 24.5t62 8q31 0 56.5 -6t44.5 -15v43q0 87 -87 87q-62 0 -115 -32l-27 54q30 16 67 25.5t79 9.5q70 0 110.5 -31.5t40.5 -105.5v-292h-68zM312 468
q-20 10 -44 16t-60 6q-44 0 -69 -20t-25 -57q0 -44 22.5 -64t58.5 -20q40 0 69 17t48 42v80z" />
    <glyph glyph-name="ordmasculine" unicode="&#xba;" horiz-adv-x="480" 
d="M426 495q0 -53 -14.5 -94.5t-40 -69.5t-59.5 -42.5t-74 -14.5q-39 0 -73 14t-58.5 41.5t-38.5 68.5t-14 94q0 54 14.5 94.5t40 68.5t59.5 42t74 14q39 0 73 -13.5t58.5 -40.5t38.5 -67.5t14 -94.5zM358 494q0 80 -32 118.5t-86 38.5t-86 -38.5t-32 -118.5
q0 -81 32 -120.5t86 -39.5t86 39.5t32 120.5z" />
    <glyph glyph-name="Omega" unicode="&#x2126;" horiz-adv-x="366" 
d="M302 528q-4 -6 -9 -3l-75 30v-555h-70v555l-75 -30q-5 -3 -9 3q-3 4 2 11l117 176l117 -176q5 -7 2 -11z" />
    <glyph glyph-name="ae" unicode="&#xe6;" horiz-adv-x="838" 
d="M781 278q0 -14 -0.5 -23t-2.5 -18h-336q5 -85 39.5 -134t99.5 -49q23 0 40.5 3.5t33.5 9.5t31 15.5t33 21.5l35 -54q-24 -15 -44 -26.5t-40.5 -19t-43.5 -11.5t-53 -4q-44 0 -87.5 20.5t-74.5 70.5q-21 -24 -42 -41t-44.5 -28.5t-51 -16.5t-60.5 -5q-31 0 -60 8.5
t-51.5 28t-36 51.5t-13.5 80q0 44 15.5 76t42.5 52.5t62 30t74 9.5q40 0 70.5 -8.5t53.5 -21.5v62q0 59 -24.5 87.5t-82.5 28.5q-42 0 -73 -10.5t-63 -29.5l-28 61q35 19 76.5 30.5t92.5 11.5q70 0 107 -25t46 -70q23 45 62.5 70t93.5 25q51 0 89.5 -19t64 -53.5t38 -82
t12.5 -103.5zM711 298q-2 38 -10.5 70t-24.5 55t-41 35.5t-59 12.5q-59 0 -93 -42.5t-41 -130.5h269zM384 139q-13 40 -16 97q-12 7 -24.5 12t-27 9t-32.5 6t-42 2q-58 0 -87 -26.5t-29 -76.5q0 -59 26 -85.5t74 -26.5q36 0 78 19.5t80 69.5z" />
    <glyph glyph-name="oslash" unicode="&#xf8;" horiz-adv-x="566" 
d="M511 266q0 -67 -18 -118.5t-49 -87t-73 -53.5t-90 -18t-86 16l-26 -55h-66l41 86q-42 33 -65.5 90t-23.5 136q0 67 18 118t49 85.5t73 52.5t90 18q47 0 89 -17l27 56h66l-42 -87q40 -33 63 -88.5t23 -133.5zM438 264q0 53 -11.5 92.5t-32.5 65.5l-171 -358q27 -12 60 -12
q69 0 112 53.5t43 158.5zM346 460q-27 13 -63 13q-69 0 -111.5 -52t-42.5 -157q0 -55 12 -95.5t34 -67.5z" />
    <glyph glyph-name="questiondown" unicode="&#xbf;" horiz-adv-x="561" 
d="M368 650q0 -25 -18 -44t-43 -19q-24 0 -42.5 19t-18.5 44t18.5 43t42.5 18q25 0 43 -18t18 -43zM517 82q-40 -39 -99 -66t-135 -27q-48 0 -87.5 11t-68 32.5t-44.5 53.5t-16 75q0 36 8.5 62.5t24.5 46.5t39 37t52 35q25 15 40 29t23 32t10.5 44t2.5 65h77q0 -50 -3.5 -83
t-16 -57.5t-36 -44.5t-62.5 -44t-60 -48.5t-21 -67.5q0 -48 39 -77.5t102 -29.5q56 0 99 20.5t82 56.5z" />
    <glyph glyph-name="exclamdown" unicode="&#xa1;" horiz-adv-x="263" 
d="M193 650q0 -25 -18 -44t-43 -19q-24 0 -42.5 19t-18.5 44t18.5 43t42.5 18q25 0 43 -18t18 -43zM93 0v329l18 183h42l17 -183v-329h-77z" />
    <glyph glyph-name="logicalnot" unicode="&#xac;" horiz-adv-x="630" 
d="M434 228q-7 -5 -11 -2q-6 4 -3 9l30 75h-395v70h395l-30 75q-3 5 3 9q4 3 11 -2l176 -117z" />
    <glyph glyph-name="radical" unicode="&#x221a;" horiz-adv-x="580" 
d="M271 0h-70l-155 340h80l49 -112q6 -14 14.5 -34.5t17 -42t16 -41.5t12.5 -33q4 13 11 33.5t15 43t15.5 43.5t12.5 36l171 467h75z" />
    <glyph glyph-name="florin" unicode="&#x192;" horiz-adv-x="393" 
d="M333 631q-13 6 -31.5 9t-36.5 3q-28 0 -44.5 -12.5t-16.5 -45.5v-60h107v-63h-107v-613l-75 -42v655h-72v63h72v57q0 35 10 59.5t28 40t42 22.5t51 7q46 0 73 -9v-71v0z" />
    <glyph glyph-name="approxequal" unicode="&#x2248;" horiz-adv-x="366" 
d="M302 172q3 -4 -2 -11l-117 -176l-117 176q-5 7 -2 11q4 6 9 3l75 -30v555h70v-555l75 30q5 3 9 -3z" />
    <glyph glyph-name="Delta" unicode="&#x2206;" horiz-adv-x="630" 
d="M180 310l30 -75q3 -5 -3 -9q-4 -3 -11 2l-176 117l176 117q7 5 11 2q6 -4 3 -9l-30 -75h395v-70h-395z" />
    <glyph glyph-name="guillemotleft" unicode="&#xab;" horiz-adv-x="576" 
d="M446 0l-203 262l203 263h85l-203 -262l203 -263h-85zM233 0l-203 262l203 263h85l-203 -262l203 -263h-85z" />
    <glyph glyph-name="guillemotright" unicode="&#xbb;" horiz-adv-x="576" 
d="M343 0h-85l203 262l-203 263h85l203 -262zM130 0h-85l203 262l-203 263h85l203 -262z" />
    <glyph glyph-name="ellipsis" unicode="&#x2026;" horiz-adv-x="720" 
d="M664 53q0 -26 -19 -45t-45 -19t-45 19t-19 45t19 46t45 20t45 -20t19 -46zM424 53q0 -26 -19 -45t-45 -19t-45 19t-19 45t19 46t45 20t45 -20t19 -46zM184 53q0 -26 -19 -45t-45 -19t-45 19t-19 45t19 46t45 20t45 -20t19 -46z" />
    <glyph glyph-name="nonbreakingspace" unicode="&#xa0;" horiz-adv-x="130" 
 />
    <glyph glyph-name="Agrave" unicode="&#xc0;" horiz-adv-x="678" 
d="M543 0l-60 178h-289l-61 -178h-80l243 700h86l243 -700h-82zM382 479q-6 17 -12.5 37t-12.5 38.5t-10.5 35l-7.5 27.5q-3 -11 -7.5 -27t-10.5 -35t-13 -39.5t-13 -38.5l-77 -228h241zM311 745l-151 160h107l103 -160h-59z" />
    <glyph glyph-name="Atilde" unicode="&#xc3;" horiz-adv-x="678" 
d="M543 0l-60 178h-289l-61 -178h-80l243 700h86l243 -700h-82zM382 479q-6 17 -12.5 37t-12.5 38.5t-10.5 35l-7.5 27.5q-3 -11 -7.5 -27t-10.5 -35t-13 -39.5t-13 -38.5l-77 -228h241zM517 878q0 -33 -8.5 -57.5t-22.5 -40.5t-32.5 -24t-38.5 -8t-37.5 6t-36.5 20
q-18 14 -30 22.5t-20 13.5t-14.5 6.5t-14.5 1.5q-14 0 -24 -14t-15 -53h-62q0 33 8.5 57.5t22.5 40.5t32.5 24t38.5 8t37.5 -6t36.5 -20q18 -14 30 -22.5t20.5 -13.5t15 -6.5t13.5 -1.5q16 0 25 16t14 51h62v0z" />
    <glyph glyph-name="Otilde" unicode="&#xd5;" horiz-adv-x="705" 
d="M643 351q0 -79 -21 -145.5t-59.5 -114.5t-92.5 -75t-119 -27t-118.5 26.5t-91.5 74.5t-58.5 114t-20.5 145t21 145.5t59 114.5t92 75t119 27t118.5 -26.5t91.5 -74.5t59 -114t21 -145zM565 349q0 66 -16.5 119.5t-45.5 92t-68 59t-85 20.5q-45 0 -83.5 -20.5t-66.5 -58
t-44 -91t-16 -119.5t16.5 -119.5t45 -92t67.5 -59t85 -20.5q45 0 84 20.5t67 58t44 91t16 119.5zM529 878q0 -33 -8.5 -57.5t-22.5 -40.5t-32.5 -24t-38.5 -8t-37.5 6t-36.5 20q-18 14 -30 22.5t-20 13.5t-14.5 6.5t-14.5 1.5q-14 0 -24 -14t-15 -53h-62q0 33 8.5 57.5
t22.5 40.5t32.5 24t38.5 8t37.5 -6t36.5 -20q18 -14 30 -22.5t20.5 -13.5t15 -6.5t13.5 -1.5q16 0 25 16t14 51h62v0z" />
    <glyph glyph-name="OE" unicode="&#x152;" horiz-adv-x="1043" 
d="M559 0v116q-16 -27 -35 -50.5t-44 -40.5t-57 -26.5t-74 -9.5q-65 0 -118 26.5t-90.5 74.5t-58 114.5t-20.5 145.5t20.5 145.5t58 114.5t90.5 74.5t118 26.5q39 0 71 -10t58 -26.5t46 -39.5t35 -48v113h412v-71h-342v-220h197v-71h-197v-267h357v-71h-427zM559 349
q0 66 -16 119.5t-44.5 92t-67 59t-84.5 20.5q-45 0 -83 -20.5t-65.5 -58t-43 -91t-15.5 -119.5t16 -119.5t44 -92t66.5 -59t84.5 -20.5q45 0 83.5 20.5t66 58t43 91t15.5 119.5z" />
    <glyph glyph-name="oe" unicode="&#x153;" horiz-adv-x="896" 
d="M839 278q0 -14 -0.5 -23t-2.5 -18h-340q5 -85 42 -134t99 -49q43 0 73.5 13t66.5 37l35 -54q-47 -30 -87 -45.5t-96 -15.5q-29 0 -56 10t-49 27t-39 39.5t-27 48.5q-11 -26 -27.5 -48.5t-39 -39.5t-51.5 -27t-64 -10q-45 0 -85.5 17.5t-70.5 52t-47.5 85.5t-17.5 118
t18 118t48.5 85.5t71.5 52.5t87 18q34 0 63 -10t51.5 -27t39 -39.5t26.5 -47.5q21 51 65 87.5t108 36.5q49 0 87 -19t64.5 -53.5t40.5 -82t14 -103.5zM769 298q-2 38 -11.5 70t-26.5 55t-41.5 35.5t-57.5 12.5q-56 0 -92.5 -42.5t-43.5 -130.5h273zM426 264
q0 104 -41.5 155.5t-106.5 51.5t-106 -51.5t-41 -155.5t41 -157t106 -53t106.5 53t41.5 157z" />
    <glyph glyph-name="endash" unicode="&#x2013;" horiz-adv-x="422" 
d="M51 330v71h320v-71h-320z" />
    <glyph glyph-name="emdash" unicode="&#x2014;" horiz-adv-x="580" 
d="M51 330v71h478v-71h-478z" />
    <glyph glyph-name="quotedblleft" unicode="&#x201c;" horiz-adv-x="469" 
d="M379 477h-102l65 223h52zM162 477h-102l65 223h52z" />
    <glyph glyph-name="quotedblright" unicode="&#x201d;" horiz-adv-x="469" 
d="M344 477h-52l15 223h102zM127 477h-52l15 223h102z" />
    <glyph glyph-name="quoteleft" unicode="&#x2018;" horiz-adv-x="252" 
d="M162 477h-102l65 223h52z" />
    <glyph glyph-name="quoteright" unicode="&#x2019;" horiz-adv-x="252" 
d="M127 477h-52l15 223h102z" />
    <glyph glyph-name="divide" unicode="&#xf7;" 
d="M542 224q-6 -4 -9 -3q-5 2 -2 10l30 80h-161v-179l80 30q8 3 10 -2q1 -3 -3 -9l-121 -166l-121 166q-4 6 -3 9q2 5 10 2l80 -30v179h-165l30 -80q3 -8 -2 -10q-3 -1 -9 3l-166 121l166 121q6 4 9 3q5 -2 2 -10l-30 -80h165v189l-80 -30q-8 -3 -10 2q-1 3 3 9l121 166
l121 -166q4 -6 3 -9q-2 -5 -10 -2l-80 30v-189h161l-30 80q-3 8 2 10q3 1 9 -3l166 -121z" />
    <glyph glyph-name="lozenge" unicode="&#x25ca;" 
d="M542 224q-6 -4 -9 -3q-5 2 -2 10l30 80h-161v-179l80 30q8 3 10 -2q1 -3 -3 -9l-121 -166l-121 166q-4 6 -3 9q2 5 10 2l80 -30v179h-165l30 -80q3 -8 -2 -10q-3 -1 -9 3l-166 121l166 121q6 4 9 3q5 -2 2 -10l-30 -80h165v189l-80 -30q-8 -3 -10 2q-1 3 3 9l121 166
l121 -166q4 -6 3 -9q-2 -5 -10 -2l-80 30v-189h161l-30 80q-3 8 2 10q3 1 9 -3l166 -121z" />
    <glyph glyph-name="ydieresis" unicode="&#xff;" horiz-adv-x="531" 
d="M230 -185h-75l72 191l-187 519h79l128 -381l18 -54l18 53l129 382h79zM418 649q0 -23 -16 -39t-39 -16t-39 16t-16 39t16 39.5t39 16.5t39 -16.5t16 -39.5zM224 649q0 -23 -16 -39t-38 -16q-23 0 -39.5 16t-16.5 39t16.5 39.5t39.5 16.5q22 0 38 -16.5t16 -39.5z" />
    <glyph glyph-name="Ydieresis" unicode="&#x178;" horiz-adv-x="652" 
d="M365 278v-278h-78v277l-240 423h89l112 -201q21 -38 42.5 -78.5t36.5 -71.5q15 31 36.5 71.5t42.5 78.5l112 201h87zM477 798q0 -23 -16 -39t-39 -16t-39 16t-16 39t16 39.5t39 16.5t39 -16.5t16 -39.5zM283 798q0 -23 -16 -39t-38 -16q-23 0 -39.5 16t-16.5 39
t16.5 39.5t39.5 16.5q22 0 38 -16.5t16 -39.5z" />
    <glyph glyph-name="fraction" unicode="&#x2044;" horiz-adv-x="457" 
d="M31 0h-82l477 700h82z" />
    <glyph glyph-name="Euro" unicode="&#x20ac;" horiz-adv-x="638" 
d="M579 592q-32 20 -72.5 34.5t-95.5 14.5q-34 0 -64.5 -10t-55.5 -32.5t-43 -57.5t-27 -86h317l-22 -59h-301q-2 -11 -2 -22v-23v-29.5t2 -28.5h272l-22 -59h-241q17 -83 62.5 -129t123.5 -46q27 0 48 2.5t40.5 7.5t37.5 13.5t39 19.5l31 -63q-83 -50 -198 -50
q-103 0 -171.5 62.5t-91.5 182.5h-109l22 59h79q-1 14 -1.5 28t-0.5 28q0 13 0.5 24t1.5 23h-98l19 59h85q22 129 94.5 192.5t175.5 63.5q58 0 109 -14.5t85 -37.5z" />
    <glyph glyph-name="guilsinglleft" unicode="&#x2039;" horiz-adv-x="363" 
d="M233 0l-203 262l203 263h85l-203 -262l203 -263h-85z" />
    <glyph glyph-name="guilsinglright" unicode="&#x203a;" horiz-adv-x="363" 
d="M130 0h-85l203 262l-203 263h85l203 -262z" />
    <glyph glyph-name="fi" unicode="&#xfb01;" horiz-adv-x="597" 
d="M525 672q0 -22 -15.5 -37.5t-36.5 -15.5q-23 0 -39 15.5t-16 37.5q0 23 16 38.5t39 15.5q21 0 36.5 -15.5t15.5 -38.5zM434 0v525h75v-525h-75zM309 646q-26 12 -61 12q-23 0 -38.5 -11t-15.5 -44v-78h103v-63h-103v-462h-75v462h-72v63h72v72q0 70 34.5 99.5t89.5 29.5
q23 0 37.5 -2t28.5 -7v-71z" />
    <glyph glyph-name="fl" unicode="&#xfb02;" horiz-adv-x="597" 
d="M434 0v687l75 42v-729h-75zM309 646q-26 12 -61 12q-23 0 -38.5 -11t-15.5 -44v-78h103v-63h-103v-462h-75v462h-72v63h72v72q0 70 34.5 99.5t89.5 29.5q23 0 37.5 -2t28.5 -7v-71z" />
    <glyph glyph-name="daggerdbl" unicode="&#x2021;" horiz-adv-x="573" 
d="M321 136v-236h-69v236h-197v65h197v198h-197v65h197v236h69v-236h197v-65h-197v-198h197v-65h-197z" />
    <glyph glyph-name="periodcentered" unicode="&#xb7;" horiz-adv-x="240" 
d="M184 367q0 -26 -19 -45t-45 -19t-45 19t-19 45t19 46t45 20t45 -20t19 -46z" />
    <glyph glyph-name="quotesinglbase" unicode="&#x201a;" horiz-adv-x="252" 
d="M127 -108h-52l15 223h102z" />
    <glyph glyph-name="quotedblbase" unicode="&#x201e;" horiz-adv-x="469" 
d="M344 -108h-52l15 223h102zM127 -108h-52l15 223h102z" />
    <glyph glyph-name="perthousand" unicode="&#x2030;" horiz-adv-x="1345" 
d="M1300 207q0 -48 -12 -88t-33.5 -69t-51.5 -45t-67 -16t-66.5 15.5t-50.5 44t-32.5 68.5t-11.5 88q0 49 11.5 89t32.5 69t51 45t68 16t68 -16t51 -44.5t32 -68.5t11 -88zM903 207q0 -48 -12 -88t-33.5 -69t-51.5 -45t-67 -16t-66.5 15.5t-50.5 44t-32.5 68.5t-11.5 88
q0 49 11.5 89t32.5 69t51 45t68 16t68 -16t51 -44.5t32 -68.5t11 -88zM300 0h-73l435 700h73zM385 494q0 -48 -12 -88t-33.5 -69t-51.5 -45t-67 -16t-66.5 15.5t-50.5 44t-32.5 68.5t-11.5 88q0 49 11.5 89t32.5 69t51 45t68 16t68 -16t51 -44.5t32 -68.5t11 -88zM1231 205
q0 34 -6.5 63.5t-18.5 50.5t-29.5 33t-39.5 12q-44 0 -68.5 -44t-24.5 -113t25 -113.5t69 -44.5q22 0 39 12.5t29 34t18.5 49.5t6.5 60zM834 205q0 34 -6.5 63.5t-18.5 50.5t-29.5 33t-39.5 12q-44 0 -68.5 -44t-24.5 -113t25 -113.5t69 -44.5q22 0 39 12.5t29 34t18.5 49.5
t6.5 60zM316 492q0 34 -6.5 63.5t-18.5 50.5t-29.5 33t-39.5 12q-44 0 -68.5 -44t-24.5 -113t25 -113.5t69 -44.5q22 0 39 12.5t29 34t18.5 49.5t6.5 60z" />
    <glyph glyph-name="Acircumflex" unicode="&#xc2;" horiz-adv-x="678" 
d="M543 0l-60 178h-289l-61 -178h-80l243 700h86l243 -700h-82zM382 479q-6 17 -12.5 37t-12.5 38.5t-10.5 35l-7.5 27.5q-3 -11 -7.5 -27t-10.5 -35t-13 -39.5t-13 -38.5l-77 -228h241zM439 725l-101 103l-101 -103h-63l123 160h84l123 -160h-65z" />
    <glyph glyph-name="Ecircumflex" unicode="&#xca;" horiz-adv-x="587" 
d="M92 0v700h423v-71h-345v-220h200v-71h-200v-267h360v-71h-438zM403 745l-101 103l-101 -103h-63l123 160h84l123 -160h-65z" />
    <glyph glyph-name="Aacute" unicode="&#xc1;" horiz-adv-x="678" 
d="M543 0l-60 178h-289l-61 -178h-80l243 700h86l243 -700h-82zM382 479q-6 17 -12.5 37t-12.5 38.5t-10.5 35l-7.5 27.5q-3 -11 -7.5 -27t-10.5 -35t-13 -39.5t-13 -38.5l-77 -228h241zM366 745h-59l103 160h107z" />
    <glyph glyph-name="Edieresis" unicode="&#xcb;" horiz-adv-x="587" 
d="M92 0v700h423v-71h-345v-220h200v-71h-200v-267h360v-71h-438zM456 808q0 -23 -16 -39t-39 -16t-39 16t-16 39t16 39.5t39 16.5t39 -16.5t16 -39.5zM262 808q0 -23 -16 -39t-38 -16q-23 0 -39.5 16t-16.5 39t16.5 39.5t39.5 16.5q22 0 38 -16.5t16 -39.5z" />
    <glyph glyph-name="Egrave" unicode="&#xc8;" horiz-adv-x="587" 
d="M92 0v700h423v-71h-345v-220h200v-71h-200v-267h360v-71h-438zM298 745l-151 160h107l103 -160h-59z" />
    <glyph glyph-name="Iacute" unicode="&#xcd;" horiz-adv-x="272" 
d="M97 0v700h78v-700h-78zM161 745h-59l103 160h107z" />
    <glyph glyph-name="Icircumflex" unicode="&#xce;" horiz-adv-x="272" 
d="M-32 0v700h78v-700h-78zM233 740l-101 103l-101 -103h-63l123 160h84l123 -160h-65z" />
    <glyph glyph-name="Idieresis" unicode="&#xcf;" horiz-adv-x="272" 
d="M-17 0v700h78v-700h-78zM287 812q0 -23 -16 -39t-39 -16t-39 16t-16 39t16 39.5t39 16.5t39 -16.5t16 -39.5zM93 812q0 -23 -16 -39t-38 -16q-23 0 -39.5 16t-16.5 39t16.5 39.5t39.5 16.5q22 0 38 -16.5t16 -39.5z" />
    <glyph glyph-name="Igrave" unicode="&#xcc;" horiz-adv-x="272" 
d="M-38 0v700h78v-700h-78zM113 745l-151 160h107l103 -160h-59z" />
    <glyph glyph-name="Oacute" unicode="&#xd3;" horiz-adv-x="705" 
d="M643 351q0 -79 -21 -145.5t-59.5 -114.5t-92.5 -75t-119 -27t-118.5 26.5t-91.5 74.5t-58.5 114t-20.5 145t21 145.5t59 114.5t92 75t119 27t118.5 -26.5t91.5 -74.5t59 -114t21 -145zM565 349q0 66 -16.5 119.5t-45.5 92t-68 59t-85 20.5q-45 0 -83.5 -20.5t-66.5 -58
t-44 -91t-16 -119.5t16.5 -119.5t45 -92t67.5 -59t85 -20.5q45 0 84 20.5t67 58t44 91t16 119.5zM369 745h-59l103 160h107z" />
    <glyph glyph-name="Ocircumflex" unicode="&#xd4;" horiz-adv-x="705" 
d="M643 351q0 -79 -21 -145.5t-59.5 -114.5t-92.5 -75t-119 -27t-118.5 26.5t-91.5 74.5t-58.5 114t-20.5 145t21 145.5t59 114.5t92 75t119 27t118.5 -26.5t91.5 -74.5t59 -114t21 -145zM565 349q0 66 -16.5 119.5t-45.5 92t-68 59t-85 20.5q-45 0 -83.5 -20.5t-66.5 -58
t-44 -91t-16 -119.5t16.5 -119.5t45 -92t67.5 -59t85 -20.5q45 0 84 20.5t67 58t44 91t16 119.5zM451 740l-101 103l-101 -103h-63l123 160h84l123 -160h-65z" />
    <glyph glyph-name="apple" 
d="M542 224q-6 -4 -9 -3q-5 2 -2 10l30 80h-161v-179l80 30q8 3 10 -2q1 -3 -3 -9l-121 -166l-121 166q-4 6 -3 9q2 5 10 2l80 -30v179h-165l30 -80q3 -8 -2 -10q-3 -1 -9 3l-166 121l166 121q6 4 9 3q5 -2 2 -10l-30 -80h165v189l-80 -30q-8 -3 -10 2q-1 3 3 9l121 166
l121 -166q4 -6 3 -9q-2 -5 -10 -2l-80 30v-189h161l-30 80q-3 8 2 10q3 1 9 -3l166 -121z" />
    <glyph glyph-name="Ograve" unicode="&#xd2;" horiz-adv-x="705" 
d="M643 351q0 -79 -21 -145.5t-59.5 -114.5t-92.5 -75t-119 -27t-118.5 26.5t-91.5 74.5t-58.5 114t-20.5 145t21 145.5t59 114.5t92 75t119 27t118.5 -26.5t91.5 -74.5t59 -114t21 -145zM565 349q0 66 -16.5 119.5t-45.5 92t-68 59t-85 20.5q-45 0 -83.5 -20.5t-66.5 -58
t-44 -91t-16 -119.5t16.5 -119.5t45 -92t67.5 -59t85 -20.5q45 0 84 20.5t67 58t44 91t16 119.5zM333 745l-151 160h107l103 -160h-59z" />
    <glyph glyph-name="Uacute" unicode="&#xda;" horiz-adv-x="678" 
d="M591 286q0 -146 -62 -221.5t-189 -75.5q-126 0 -189.5 74.5t-63.5 220.5v416h78v-414q0 -226 179 -226q91 0 130 55t39 169v416h78v-414v0zM356 730h-59l103 160h107z" />
    <glyph glyph-name="Ucircumflex" unicode="&#xdb;" horiz-adv-x="678" 
d="M591 286q0 -146 -62 -221.5t-189 -75.5q-126 0 -189.5 74.5t-63.5 220.5v416h78v-414q0 -226 179 -226q91 0 130 55t39 169v416h78v-414v0zM439 745l-101 103l-101 -103h-63l123 160h84l123 -160h-65z" />
    <glyph glyph-name="Ugrave" unicode="&#xd9;" horiz-adv-x="678" 
d="M591 286q0 -146 -62 -221.5t-189 -75.5q-126 0 -189.5 74.5t-63.5 220.5v416h78v-414q0 -226 179 -226q91 0 130 55t39 169v416h78v-414v0zM320 730l-151 160h107l103 -160h-59z" />
    <glyph glyph-name="dotlessi" unicode="&#x131;" horiz-adv-x="251" 
d="M88 0v525h75v-525h-75z" />
    <glyph glyph-name="circumflex" unicode="&#x2c6;" horiz-adv-x="500" 
d="M350 595l-101 103l-101 -103h-63l123 160h84l123 -160h-65z" />
    <glyph glyph-name="tilde" unicode="&#x2dc;" horiz-adv-x="500" 
d="M428 728q0 -33 -8.5 -57.5t-22.5 -40.5t-32.5 -24t-38.5 -8t-37.5 6t-36.5 20q-18 14 -30 22.5t-20 13.5t-14.5 6.5t-14.5 1.5q-14 0 -24 -14t-15 -53h-62q0 33 8.5 57.5t22.5 40.5t32.5 24t38.5 8t37.5 -6t36.5 -20q18 -14 30 -22.5t20.5 -13.5t15 -6.5t13.5 -1.5
q16 0 25 16t14 51h62v0z" />
    <glyph glyph-name="macron" unicode="&#xaf;" horiz-adv-x="500" 
d="M114 618v70h272v-70h-272z" />
    <glyph glyph-name="breve" unicode="&#x2d8;" horiz-adv-x="500" 
d="M419 755q-4 -75 -48 -117.5t-122 -42.5q-73 0 -118.5 42.5t-49.5 117.5h62q7 -104 108 -104q46 0 74 25t33 79h61v0z" />
    <glyph glyph-name="dotaccent" unicode="&#x2d9;" horiz-adv-x="500" 
d="M305 658q0 -23 -16 -39t-39 -16t-39 16t-16 39t16 39.5t39 16.5t39 -16.5t16 -39.5z" />
    <glyph glyph-name="ring" unicode="&#x2da;" horiz-adv-x="500" 
d="M367 716q0 -24 -8.5 -45.5t-24.5 -37.5t-37.5 -25t-46.5 -9q-26 0 -47 9t-37 25t-24.5 37.5t-8.5 45.5t8.5 45.5t24.5 37t37 24.5t47 9q25 0 46.5 -9t37.5 -24.5t24.5 -37t8.5 -45.5zM320 716q0 31 -19 51t-51 20t-51 -20t-19 -51q0 -32 19 -52t51 -20t51 20t19 52z" />
    <glyph glyph-name="cedilla" unicode="&#xb8;" horiz-adv-x="500" 
d="M373 -106q0 -24 -9.5 -41t-26 -27t-38 -14.5t-45.5 -4.5q-31 0 -61.5 9.5t-56.5 26.5l19 32q42 -27 92 -27q39 0 53 13t14 30q0 15 -8 24t-24 9q-29 0 -48 -18l-36 14l25 80h45l-17 -51q11 7 24 10.5t31 3.5q10 0 22 -3.5t22 -12t16.5 -21.5t6.5 -32z" />
    <glyph glyph-name="hungarumlaut" unicode="&#x2dd;" horiz-adv-x="500" 
d="M307 595h-56l93 160h100zM130 595h-56l93 160h100z" />
    <glyph glyph-name="ogonek" unicode="&#x2db;" horiz-adv-x="500" 
d="M369 -154q-30 -17 -63 -28t-62 -11q-44 0 -67.5 22.5t-23.5 60.5q0 33 24 60t60 50h52q-38 -26 -56 -49t-18 -52q0 -20 12 -33t34 -13q24 0 45.5 5.5t47.5 16.5l15 -29v0z" />
    <glyph glyph-name="caron" unicode="&#x2c7;" horiz-adv-x="500" 
d="M292 595h-84l-123 160h65l101 -103l101 103h63z" />
    <glyph glyph-name="Eth" unicode="&#xd0;" horiz-adv-x="682" 
d="M606 355q0 -95 -25.5 -162.5t-70.5 -110.5t-106 -62.5t-131 -19.5h-171v331h-62v70h62v299h185q69 0 127.5 -20t101 -62.5t66.5 -107.5t24 -155zM528 352q0 135 -63 206t-184 71h-103v-228h142v-70h-142v-260h105q57 0 102 15.5t77 49.5t49 87.5t17 128.5z" />
    <glyph glyph-name="eth" unicode="&#xf0;" horiz-adv-x="566" 
d="M511 298q0 -81 -16 -139t-45.5 -96t-72 -56t-96.5 -18q-45 0 -86 16t-72 47t-49.5 77t-18.5 106t17.5 106.5t47 77.5t67 47t78.5 16q68 0 109.5 -24.5t68.5 -64.5q-30 133 -111 196l-56 -63l-51 43l48 54q-20 8 -42.5 14t-47.5 8v66q73 -5 135 -37l34 37l51 -43l-29 -32
q62 -51 99.5 -135t37.5 -203zM436 237q0 94 -45 137t-115 43q-67 0 -106 -46t-39 -134q0 -47 11.5 -81t32 -57t48.5 -34t60 -11t60 11t48.5 34t32.5 57t12 81z" />
    </font>
</defs>
</svg>
