<?xml version="1.0" standalone="no"?>
<!DOCTYPE svg PUBLIC "-//W3C//DTD SVG 1.1//EN" "http://www.w3.org/Graphics/SVG/1.1/DTD/svg11.dtd" >
<svg xmlns="http://www.w3.org/2000/svg" xmlns:xlink="http://www.w3.org/1999/xlink" version="1.1">
<metadata>
Created by FontForge 20160407 at Mon Dec  5 18:25:17 2016
 By Jimmy Warting
1993, Tobias Frere-Jones. Designed by Tobias Frere-Jones. Produced by The Font Bureau, Inc. Euro-sign 1998 by formgebung Henning Krause, Berlin, Germany.
</metadata>
<defs>
<font id="Interstate-Regular" horiz-adv-x="570" >
  <font-face 
    font-family="Interstate"
    font-weight="400"
    font-stretch="normal"
    units-per-em="1000"
    panose-1="2 0 5 3 8 0 0 2 0 4"
    ascent="800"
    descent="-200"
    x-height="525"
    cap-height="700"
    bbox="-61 -193 1333 912"
    underline-thickness="20"
    underline-position="-133"
    unicode-range="U+0020-FB02"
  />
<missing-glyph horiz-adv-x="500" 
 />
    <glyph glyph-name=".notdef" horiz-adv-x="500" 
 />
    <glyph glyph-name="NUL" horiz-adv-x="0" 
 />
    <glyph glyph-name="nonmarkingreturn" horiz-adv-x="270" 
 />
    <glyph glyph-name="space" unicode=" " horiz-adv-x="270" 
 />
    <glyph glyph-name="lslash" unicode="&#x142;" horiz-adv-x="285" 
d="M193 312v-312h-101v238l-52 -39v115l52 40v322l101 53v-301l52 44v-115z" />
    <glyph glyph-name="Scaron" unicode="&#x160;" horiz-adv-x="626" 
d="M560 201q0 -47 -15.5 -86t-47 -67t-80.5 -43.5t-116 -15.5q-77 0 -140.5 30.5t-108.5 82.5l75 73q35 -38 83.5 -60.5t98.5 -22.5q145 0 145 102q0 20 -8 36t-27 29.5t-49 25.5t-74 25q-56 16 -97 33t-68 39.5t-40.5 54.5t-13.5 79q0 45 18 81.5t49 61.5t73.5 38.5
t90.5 13.5q72 0 127 -25t102 -70l-74 -75q-33 34 -72 50.5t-91 16.5q-62 0 -89.5 -26t-27.5 -61q0 -18 7 -32.5t24 -27t47 -24.5t75 -25q52 -16 93.5 -33t70.5 -41t44.5 -57t15.5 -80zM364 752h-120l-117 160h83l95 -88l95 88h81z" />
    <glyph glyph-name="scaron" unicode="&#x161;" horiz-adv-x="499" 
d="M443 144q0 -44 -16.5 -73.5t-43.5 -47.5t-62.5 -26t-74.5 -8q-54 0 -107.5 19t-93.5 48l47 78q37 -26 76.5 -39t76.5 -13q96 0 96 58q0 30 -32.5 48t-89.5 40q-42 16 -71.5 32.5t-48 35.5t-26.5 42.5t-8 54.5q0 35 13 62t37 45t57 27t72 9q50 0 96.5 -16t81.5 -42
l-45 -79q-32 23 -65 34t-71 11t-55 -13.5t-17 -34.5q0 -10 4 -18.5t15 -17.5t29.5 -18.5t48.5 -21.5q44 -17 77 -32.5t55.5 -35t33.5 -45.5t11 -63zM302 595h-120l-117 160h83l95 -88l95 88h81z" />
    <glyph glyph-name="Yacute" unicode="&#xdd;" horiz-adv-x="689" 
d="M397 277v-277h-105v277l-251 423h123l109 -193q9 -16 19.5 -36t21 -39.5t18.5 -36.5t13 -27q4 10 12.5 26.5t18.5 35.5t21 39t20 37l110 194h121zM366 730h-82l107 160h140z" />
    <glyph glyph-name="yacute" unicode="&#xfd;" horiz-adv-x="556" 
d="M259 -185h-109l76 195l-193 515h113l86 -257q6 -17 13 -39t13.5 -44t12 -40.5t7.5 -29.5q3 12 8.5 30.5t12 39.5t13.5 42.5t13 38.5l89 259h109zM298 586h-82l107 160h140z" />
    <glyph glyph-name="Thorn" unicode="&#xde;" horiz-adv-x="653" 
d="M609 364q0 -54 -17 -95t-48 -69t-73.5 -42t-93.5 -14h-181v-144h-105v700h105v-117h188q48 0 89.5 -14t71.5 -41.5t47 -68.5t17 -95zM502 364q0 58 -33 88t-88 30h-185v-237h185q60 0 90.5 31t30.5 88z" />
    <glyph glyph-name="thorn" unicode="&#xfe;" 
d="M517 254q0 -68 -17 -117.5t-45.5 -82.5t-66 -49t-78.5 -16q-40 0 -75 18t-57 42v-189l-102 -53v869l102 53v-254q29 26 62 43.5t75 17.5t79 -16t64.5 -50t43 -87.5t15.5 -128.5zM414 251q0 100 -30.5 145t-87.5 45q-37 0 -68 -20.5t-51 -46.5v-221q9 -12 22 -24t29 -22
t34 -16.5t38 -6.5q56 0 85 41.5t29 125.5z" />
    <glyph glyph-name="Zcaron" unicode="&#x17d;" horiz-adv-x="664" 
d="M60 0v102l342 413q8 10 19 23t22 25.5t21 23.5t17 18q-11 0 -28.5 -0.5t-37.5 -1t-40 -0.5h-35h-260v97h512v-102l-338 -413q-8 -10 -19 -23t-22 -25.5t-21 -23.5t-17 -18q10 0 28 0.5t38 1t40 0.5h35h276v-97h-532zM389 745h-120l-117 160h83l95 -88l95 88h81z" />
    <glyph glyph-name="zcaron" unicode="&#x17e;" horiz-adv-x="527" 
d="M58 0v84l225 275q16 20 34 42t29 34h-19h-25.5h-26.5h-23h-174v90h385v-83l-220 -275l-34 -42.5t-29 -34.5h19.5h26h27h23.5h187v-90h-405zM327 595h-120l-117 160h83l95 -88l95 88h81z" />
    <glyph glyph-name="onehalf" unicode="&#xbd;" horiz-adv-x="760" 
d="M573 220q-11 -6 -17 -2q-12 8 -7 18l23 66h-147v-149l65 23q11 4 19 -7q4 -7 -2 -17l-126 -167l-126 167q-6 11 -3 17q9 11 20 7l65 -23v149h-149l23 -66q5 -10 -7 -18q-6 -4 -17 2l-167 126l167 126q12 7 17 3q11 -9 7 -20l-23 -65h149v157l-65 -23q-11 -4 -20 7
q-4 5 3 17l126 167l126 -167q6 -11 2 -17q-8 -11 -19 -7l-65 23v-157h147l-23 65q-4 11 7 20q5 4 17 -3l167 -126z" />
    <glyph glyph-name="onequarter" unicode="&#xbc;" horiz-adv-x="760" 
d="M573 220q-11 -6 -17 -2q-12 8 -7 18l23 66h-147v-149l65 23q11 4 19 -7q4 -7 -2 -17l-126 -167l-126 167q-6 11 -3 17q9 11 20 7l65 -23v149h-149l23 -66q5 -10 -7 -18q-6 -4 -17 2l-167 126l167 126q12 7 17 3q11 -9 7 -20l-23 -65h149v157l-65 -23q-11 -4 -20 7
q-4 5 3 17l126 167l126 -167q6 -11 2 -17q-8 -11 -19 -7l-65 23v-157h147l-23 65q-4 11 7 20q5 4 17 -3l167 -126z" />
    <glyph glyph-name="onesuperior" unicode="&#xb9;" horiz-adv-x="760" 
d="M573 220q-11 -6 -17 -2q-12 8 -7 18l23 66h-147v-149l65 23q11 4 19 -7q4 -7 -2 -17l-126 -167l-126 167q-6 11 -3 17q9 11 20 7l65 -23v149h-149l23 -66q5 -10 -7 -18q-6 -4 -17 2l-167 126l167 126q12 7 17 3q11 -9 7 -20l-23 -65h149v157l-65 -23q-11 -4 -20 7
q-4 5 3 17l126 167l126 -167q6 -11 2 -17q-8 -11 -19 -7l-65 23v-157h147l-23 65q-4 11 7 20q5 4 17 -3l167 -126z" />
    <glyph glyph-name="threequarters" unicode="&#xbe;" horiz-adv-x="760" 
d="M573 220q-11 -6 -17 -2q-12 8 -7 18l23 66h-147v-149l65 23q11 4 19 -7q4 -7 -2 -17l-126 -167l-126 167q-6 11 -3 17q9 11 20 7l65 -23v149h-149l23 -66q5 -10 -7 -18q-6 -4 -17 2l-167 126l167 126q12 7 17 3q11 -9 7 -20l-23 -65h149v157l-65 -23q-11 -4 -20 7
q-4 5 3 17l126 167l126 -167q6 -11 2 -17q-8 -11 -19 -7l-65 23v-157h147l-23 65q-4 11 7 20q5 4 17 -3l167 -126z" />
    <glyph glyph-name="threesuperior" unicode="&#xb3;" horiz-adv-x="760" 
d="M573 220q-11 -6 -17 -2q-12 8 -7 18l23 66h-147v-149l65 23q11 4 19 -7q4 -7 -2 -17l-126 -167l-126 167q-6 11 -3 17q9 11 20 7l65 -23v149h-149l23 -66q5 -10 -7 -18q-6 -4 -17 2l-167 126l167 126q12 7 17 3q11 -9 7 -20l-23 -65h149v157l-65 -23q-11 -4 -20 7
q-4 5 3 17l126 167l126 -167q6 -11 2 -17q-8 -11 -19 -7l-65 23v-157h147l-23 65q-4 11 7 20q5 4 17 -3l167 -126z" />
    <glyph glyph-name="twosuperior" unicode="&#xb2;" horiz-adv-x="760" 
d="M573 220q-11 -6 -17 -2q-12 8 -7 18l23 66h-147v-149l65 23q11 4 19 -7q4 -7 -2 -17l-126 -167l-126 167q-6 11 -3 17q9 11 20 7l65 -23v149h-149l23 -66q5 -10 -7 -18q-6 -4 -17 2l-167 126l167 126q12 7 17 3q11 -9 7 -20l-23 -65h149v157l-65 -23q-11 -4 -20 7
q-4 5 3 17l126 167l126 -167q6 -11 2 -17q-8 -11 -19 -7l-65 23v-157h147l-23 65q-4 11 7 20q5 4 17 -3l167 -126z" />
    <glyph glyph-name="brokenbar" unicode="&#xa6;" horiz-adv-x="760" 
d="M573 220q-11 -6 -17 -2q-12 8 -7 18l23 66h-147v-149l65 23q11 4 19 -7q4 -7 -2 -17l-126 -167l-126 167q-6 11 -3 17q9 11 20 7l65 -23v149h-149l23 -66q5 -10 -7 -18q-6 -4 -17 2l-167 126l167 126q12 7 17 3q11 -9 7 -20l-23 -65h149v157l-65 -23q-11 -4 -20 7
q-4 5 3 17l126 167l126 -167q6 -11 2 -17q-8 -11 -19 -7l-65 23v-157h147l-23 65q-4 11 7 20q5 4 17 -3l167 -126z" />
    <glyph glyph-name="minus" unicode="&#x2212;" horiz-adv-x="760" 
d="M573 220q-11 -6 -17 -2q-12 8 -7 18l23 66h-147v-149l65 23q11 4 19 -7q4 -7 -2 -17l-126 -167l-126 167q-6 11 -3 17q9 11 20 7l65 -23v149h-149l23 -66q5 -10 -7 -18q-6 -4 -17 2l-167 126l167 126q12 7 17 3q11 -9 7 -20l-23 -65h149v157l-65 -23q-11 -4 -20 7
q-4 5 3 17l126 167l126 -167q6 -11 2 -17q-8 -11 -19 -7l-65 23v-157h147l-23 65q-4 11 7 20q5 4 17 -3l167 -126z" />
    <glyph glyph-name="multiply" unicode="&#xd7;" horiz-adv-x="760" 
d="M573 220q-11 -6 -17 -2q-12 8 -7 18l23 66h-147v-149l65 23q11 4 19 -7q4 -7 -2 -17l-126 -167l-126 167q-6 11 -3 17q9 11 20 7l65 -23v149h-149l23 -66q5 -10 -7 -18q-6 -4 -17 2l-167 126l167 126q12 7 17 3q11 -9 7 -20l-23 -65h149v157l-65 -23q-11 -4 -20 7
q-4 5 3 17l126 167l126 -167q6 -11 2 -17q-8 -11 -19 -7l-65 23v-157h147l-23 65q-4 11 7 20q5 4 17 -3l167 -126z" />
    <glyph glyph-name="Lslash" unicode="&#x141;" horiz-adv-x="610" 
d="M106 0v234l-66 -52v115l66 52v351h103v-279l140 115v-115l-140 -115v-203h351v-103h-454z" />
    <glyph glyph-name="exclam" unicode="!" horiz-adv-x="298" 
d="M182 202h-66l-20 187v311h106v-311zM224 64q0 -31 -22 -53t-53 -22t-53 22t-22 53t22 53.5t53 22.5t53 -22.5t22 -53.5z" />
    <glyph glyph-name="quotedbl" unicode="&#x22;" horiz-adv-x="490" 
d="M393 373h-75l-25 327h125zM172 373h-75l-25 327h125z" />
    <glyph glyph-name="numbersign" unicode="#" horiz-adv-x="700" 
d="M530 160v-160h-98v160h-164v-160h-98v160h-120v95h120v190h-120v95h120v160h98v-160h164v160h98v-160h120v-95h-120v-190h120v-95h-120zM432 445h-164v-190h164v190z" />
    <glyph glyph-name="dollar" unicode="$" horiz-adv-x="616" 
d="M554 206q0 -87 -49 -139t-149 -65v-102h-105v102q-63 8 -116.5 37t-88.5 74l80 68q38 -42 82.5 -61.5t94.5 -19.5q75 0 109.5 24t34.5 71q0 21 -8 36.5t-26 28t-48 24.5t-74 25q-56 16 -97 33t-68 39.5t-40.5 53.5t-13.5 76q0 39 13.5 70.5t37.5 55.5t57 39t71 21v103
h105v-103q53 -8 96 -31.5t80 -60.5l-73 -74q-37 32 -73.5 50.5t-90.5 18.5q-61 0 -88.5 -22.5t-27.5 -57.5q0 -18 6.5 -32t23 -26t46 -23.5t75.5 -25.5q53 -16 94.5 -32.5t70.5 -39.5t44 -55t15 -80z" />
    <glyph glyph-name="percent" horiz-adv-x="979" 
d="M929 207q0 -48 -13 -88t-36 -69t-55 -45t-70 -16t-69.5 16t-54 44.5t-35 68t-12.5 87.5t12.5 88.5t35 69.5t54.5 45t71 16q40 0 71.5 -16t54 -45t34.5 -68.5t12 -87.5zM325 0h-101l429 700h101zM395 494q0 -48 -13 -88t-36 -69t-55 -45t-70 -16t-69.5 16t-54 44.5t-35 68
t-12.5 87.5t12.5 88.5t35 69.5t54.5 45t71 16q40 0 71.5 -16t54 -45t34.5 -68.5t12 -87.5zM839 205q0 60 -21.5 96t-61.5 36t-61 -35t-21 -95t21.5 -96t61.5 -36t61 37.5t21 92.5zM305 492q0 60 -21.5 96t-61.5 36t-61 -35t-21 -95t21.5 -96t61.5 -36t61 37.5t21 92.5z" />
    <glyph glyph-name="ampersand" unicode="&#x26;" horiz-adv-x="680" 
d="M530 0l-55 65q-39 -35 -88 -55.5t-109 -20.5q-112 0 -166 52.5t-54 137.5q0 71 37 118.5t110 88.5l-13 16q-35 43 -50.5 76t-15.5 72q0 76 52 118.5t142 42.5q49 0 95.5 -17t92.5 -49l-49 -84q-41 29 -74 41t-74 12t-60.5 -16.5t-19.5 -45.5q0 -22 7 -39.5t29 -44.5
l205 -251q16 27 28 57t20 59l95 -27q-11 -43 -30 -86.5t-46 -82.5l111 -137h-120zM265 315q-50 -28 -76 -58t-26 -73q0 -42 29 -70.5t90 -28.5q39 0 72 14.5t59 39.5z" />
    <glyph glyph-name="quotesingle" unicode="'" horiz-adv-x="269" 
d="M175 373h-81l-25 327h131z" />
    <glyph glyph-name="parenleft" unicode="(" horiz-adv-x="353" 
d="M253 -110q-38 36 -73 79t-62 94t-43.5 110t-16.5 127q0 70 16 130t43 111.5t62.5 95t73.5 79.5l52 -45q-67 -75 -102.5 -163t-35.5 -203q0 -62 9.5 -114t27.5 -97t43.5 -84t57.5 -75z" />
    <glyph glyph-name="parenright" unicode=")" horiz-adv-x="353" 
d="M295 307q0 -70 -16 -130t-43 -111.5t-62.5 -95t-73.5 -79.5l-52 45q67 75 102.5 163t35.5 203q0 61 -9.5 113t-27.5 97t-43.5 84.5t-57.5 75.5l52 45q37 -36 72.5 -79t62.5 -94t43.5 -110t16.5 -127z" />
    <glyph glyph-name="asterisk" unicode="*" horiz-adv-x="500" 
d="M403 360l-124 89l16 -153h-88l15 154l-125 -90l-45 76l140 63l-139 63l45 76l124 -91l-15 153h88l-16 -151l123 89l45 -76l-142 -63l143 -63z" />
    <glyph glyph-name="plus" unicode="+" horiz-adv-x="593" 
d="M348 294v-195h-103v195h-190v100h190v195h103v-195h190v-100h-190z" />
    <glyph glyph-name="comma" unicode="," horiz-adv-x="254" 
d="M126 -126h-71l15 265h131z" />
    <glyph glyph-name="hyphen" unicode="-" horiz-adv-x="360" 
d="M55 315v102h250v-102h-250z" />
    <glyph glyph-name="period" unicode="." horiz-adv-x="254" 
d="M206 68q0 -32 -23.5 -55.5t-55.5 -23.5t-55.5 23.5t-23.5 55.5q0 16 6.5 30.5t17 25.5t25 17.5t30.5 6.5t30.5 -6.5t25 -17.5t17 -25.5t6.5 -30.5z" />
    <glyph glyph-name="slash" unicode="/" horiz-adv-x="446" 
d="M119 -90h-103l311 880h103z" />
    <glyph glyph-name="zero" unicode="0" horiz-adv-x="662" 
d="M607 351q0 -80 -18 -146.5t-53 -114.5t-86.5 -74.5t-119.5 -26.5t-119.5 26.5t-86 74t-52 113.5t-17.5 146q0 79 18 145.5t53 114.5t86.5 75t119.5 27t119.5 -26.5t86 -74t52 -114t17.5 -145.5zM501 349q0 55 -9.5 102.5t-30 82.5t-53 55t-78.5 20t-78 -19.5t-52.5 -54
t-29.5 -82t-9 -102.5t9.5 -102.5t30 -82.5t53 -55t78.5 -20t78 19.5t52.5 54t29.5 82t9 102.5z" />
    <glyph glyph-name="one" unicode="1" horiz-adv-x="342" 
d="M143 0v536h-124v73q54 4 94 24t50 67h85v-700h-105z" />
    <glyph glyph-name="two" unicode="2" horiz-adv-x="633" 
d="M48 0q3 77 26 134t59.5 101t84 78t99.5 65q36 21 59 38t36.5 32.5t18.5 31.5t5 34q0 42 -31 67t-103 25q-45 0 -90 -19t-79 -51l-67 80q48 45 110.5 70t128.5 25q109 0 173.5 -47t64.5 -144q0 -41 -10 -71t-31.5 -55.5t-55 -49.5t-79.5 -51q-50 -30 -83.5 -54t-54.5 -46
t-32.5 -44t-17.5 -47h371v-102h-502z" />
    <glyph glyph-name="three" unicode="3" horiz-adv-x="612" 
d="M541 208q0 -108 -69 -163.5t-193 -55.5q-37 0 -74 8t-70.5 23t-61.5 36.5t-46 48.5l80 68q32 -41 78 -60.5t94 -19.5q84 0 118.5 30.5t34.5 84.5t-36 79.5t-91 25.5h-65v102h64q49 0 74 28t25 68q0 15 -6 32t-21 31t-40.5 23.5t-64.5 9.5q-42 0 -75.5 -17t-62.5 -48
l-78 74q45 46 98.5 70.5t119.5 24.5q49 0 93 -12.5t76 -36.5t51 -59.5t19 -81.5q0 -63 -24.5 -98t-60.5 -55q50 -14 82 -54t32 -106z" />
    <glyph glyph-name="four" unicode="4" horiz-adv-x="667" 
d="M522 157v-157h-102v154h-379v100l361 446h120v-450h93v-93h-93zM423 582q-10 -14 -28 -37.5t-35 -45.5l-135 -172q-16 -20 -35.5 -43t-30.5 -35h22.5t29.5 0.5t31.5 0.5h29.5h148v204q0 15 0.5 33l1 36t1 33.5t0.5 25.5z" />
    <glyph glyph-name="five" unicode="5" horiz-adv-x="636" 
d="M574 238q0 -64 -20.5 -111t-57 -77.5t-87 -45.5t-111.5 -15q-67 0 -127 16.5t-117 52.5l51 87q45 -25 96.5 -39.5t99.5 -14.5q82 0 124 37.5t42 104.5q0 63 -38 94t-104 31q-45 0 -76.5 -12t-58.5 -32l-112 44l24 342h430v-100h-336l-14 -177q29 17 66 26.5t85 9.5
q60 0 105 -16.5t75.5 -46t45.5 -70t15 -88.5z" />
    <glyph glyph-name="six" unicode="6" horiz-adv-x="636" 
d="M592 222q0 -57 -21 -101t-58 -73t-87 -44t-108 -15q-55 0 -103 15.5t-83.5 49.5t-56 87t-20.5 127q0 46 9 96t29.5 98t54 92t81.5 78t112.5 55t147.5 24v-99q-121 -5 -201.5 -61t-114.5 -166q37 29 78.5 42.5t105.5 13.5q48 0 90.5 -13.5t74.5 -40.5t51 -68t19 -97z
M486 220q0 63 -42 92.5t-117 29.5q-77 0 -121 -30.5t-44 -92.5q0 -26 10 -49t30.5 -40.5t50.5 -28t69 -10.5q80 0 122 34.5t42 94.5z" />
    <glyph glyph-name="seven" unicode="7" horiz-adv-x="594" 
d="M513 594q-45 -50 -86 -112.5t-73 -137t-52 -161t-22 -183.5h-106q1 90 17 171t44 155t67.5 141.5t88.5 130.5h-367v102h489v-106v0z" />
    <glyph glyph-name="eight" unicode="8" horiz-adv-x="670" 
d="M610 204q0 -52 -19.5 -92t-55.5 -67.5t-87.5 -41.5t-114.5 -14q-127 0 -200 55.5t-73 159.5q0 128 124 174q-27 11 -45 27.5t-29 35.5t-15.5 37.5t-4.5 34.5q0 51 19 88t52.5 61.5t78.5 36.5t96 12q47 0 91 -11.5t78 -35.5t54.5 -61t20.5 -88q0 -15 -4.5 -34.5
t-15.5 -38.5t-29 -36t-45 -28q57 -21 90.5 -63.5t33.5 -110.5zM474 512q0 20 -7.5 38.5t-24 33t-43.5 23t-65 8.5t-64.5 -8t-43 -21.5t-23.5 -31.5t-7 -38q0 -42 37 -69t103 -27q68 0 103 27t35 65zM504 201q0 56 -41 88t-129 32q-85 0 -126.5 -30.5t-41.5 -84.5
q0 -56 44 -88.5t125 -32.5q85 0 127 32.5t42 83.5z" />
    <glyph glyph-name="nine" unicode="9" horiz-adv-x="636" 
d="M581 432q0 -46 -9 -96t-29.5 -98t-54 -92t-81.5 -78t-112.5 -55.5t-147.5 -23.5v99q121 5 201.5 61t114.5 166q-37 -29 -78.5 -42.5t-105.5 -13.5q-48 0 -90.5 13.5t-74.5 40.5t-51 68t-19 97q0 57 21 101t58 73t87 44t108 15q55 0 103 -16t83.5 -49.5t56 -86.5
t20.5 -127zM474 481q0 25 -10 48.5t-30.5 41t-50.5 28t-69 10.5q-80 0 -122 -34.5t-42 -94.5q0 -63 42 -92.5t117 -29.5q77 0 121 30.5t44 92.5z" />
    <glyph glyph-name="colon" unicode=":" horiz-adv-x="254" 
d="M206 456q0 -32 -23.5 -55.5t-55.5 -23.5t-55.5 23.5t-23.5 55.5q0 16 6.5 30.5t17 25.5t25 17.5t30.5 6.5t30.5 -6.5t25 -17.5t17 -25.5t6.5 -30.5zM206 68q0 -32 -23.5 -55.5t-55.5 -23.5t-55.5 23.5t-23.5 55.5q0 16 6.5 30.5t17 25.5t25 17.5t30.5 6.5t30.5 -6.5
t25 -17.5t17 -25.5t6.5 -30.5z" />
    <glyph glyph-name="semicolon" unicode=";" horiz-adv-x="254" 
d="M206 456q0 -32 -23.5 -55.5t-55.5 -23.5t-55.5 23.5t-23.5 55.5q0 16 6.5 30.5t17 25.5t25 17.5t30.5 6.5t30.5 -6.5t25 -17.5t17 -25.5t6.5 -30.5zM119 -126h-71l15 265h131z" />
    <glyph glyph-name="less" unicode="&#x3c;" horiz-adv-x="414" 
d="M57 300v88l291 253v-130l-194 -166l194 -167v-131z" />
    <glyph glyph-name="equal" unicode="=" horiz-adv-x="593" 
d="M80 409v100h433v-100h-433zM80 179v100h433v-100h-433z" />
    <glyph glyph-name="greater" unicode="&#x3e;" horiz-adv-x="414" 
d="M66 47v130l194 166l-194 167v131l291 -253v-88z" />
    <glyph glyph-name="question" unicode="?" horiz-adv-x="571" 
d="M517 525q0 -36 -8.5 -63.5t-24.5 -49t-40.5 -39t-55.5 -35.5q-24 -14 -39 -26t-23 -27t-10.5 -35t-2.5 -48h-109q0 44 5 75t19.5 55t40 44.5t67.5 43.5q38 21 56 42t18 57q0 42 -35 65t-100 23q-56 0 -96 -21t-78 -57l-67 79q43 43 104.5 73t139.5 30q53 0 97 -12
t75.5 -35.5t49 -58t17.5 -80.5zM333 64q0 -31 -22 -53t-53 -22t-53 22t-22 53t22 53.5t53 22.5t53 -22.5t22 -53.5z" />
    <glyph glyph-name="at" unicode="@" horiz-adv-x="836" 
d="M779 360q0 -57 -11.5 -96t-31.5 -63.5t-48 -35.5t-61 -11q-39 0 -66 17.5t-41 44.5q-9 -12 -23.5 -23t-31.5 -20t-36 -14t-37 -5q-29 0 -56.5 8.5t-48.5 25.5t-34 42.5t-13 60.5q0 32 13 56t35 39.5t51.5 23.5t61.5 8q30 0 56 -8t43 -18v51q0 32 -24 45.5t-69 13.5
q-28 0 -51.5 -5t-45.5 -19l-28 49q28 17 61 25.5t68 8.5q71 0 113.5 -29.5t42.5 -90.5v-168q0 -27 15.5 -43.5t50.5 -16.5q47 0 67.5 38t20.5 110q0 60 -23 113t-63.5 93t-96 63.5t-120.5 23.5q-66 0 -121.5 -23t-96 -63.5t-63 -96t-22.5 -120.5q0 -66 22.5 -121.5t63 -96
t96 -63.5t121.5 -23q34 0 65 6t65 23l24 -53q-43 -20 -77 -27t-77 -7q-78 0 -144.5 27t-114.5 75t-75 114.5t-27 144.5t27 144.5t75 114.5t114.5 75t144.5 27q80 0 146.5 -28t114 -76t74 -112t26.5 -135zM500 331q-15 11 -42 20.5t-61 9.5q-43 0 -67.5 -17.5t-24.5 -50.5
q0 -36 24.5 -57.5t72.5 -21.5q28 0 56 15.5t42 40.5v61z" />
    <glyph glyph-name="A" unicode="A" horiz-adv-x="712" 
d="M553 0l-59 166h-280l-58 -166h-109l252 700h111l255 -700h-112zM406 421q-6 19 -14 42t-15.5 46t-14 42.5t-9.5 30.5q-3 -11 -9 -30.5t-13 -42t-14.5 -46.5t-14.5 -43l-56 -160h216z" />
    <glyph glyph-name="B" unicode="B" horiz-adv-x="675" 
d="M609 215q0 -107 -62.5 -161t-177.5 -54h-278v700h288q92 0 146.5 -46.5t54.5 -135.5q0 -54 -25.5 -87.5t-63.5 -52.5q21 -6 42 -18.5t38 -32.5t27.5 -48t10.5 -64zM475 512q0 39 -22 65.5t-75 26.5h-188v-181h188q26 0 44.5 7.5t30 20t17 28.5t5.5 33zM504 212
q0 54 -32 85t-92 31h-190v-232h187q70 0 98.5 32t28.5 84z" />
    <glyph glyph-name="C" unicode="C" horiz-adv-x="655" 
d="M595 123q-38 -65 -99.5 -99.5t-141.5 -34.5q-68 0 -122.5 26.5t-93 74.5t-59.5 114t-21 146q0 79 21 145.5t59.5 114.5t93 74.5t122.5 26.5q86 0 144 -33.5t94 -97.5l-93 -58q-27 43 -59 63.5t-86 20.5q-92 0 -140 -69t-48 -187t48 -187t140 -69q55 0 91 22t63 65l87 -58
v0z" />
    <glyph glyph-name="D" unicode="D" horiz-adv-x="679" 
d="M623 350q0 -93 -27.5 -159t-74.5 -108.5t-108.5 -62.5t-130.5 -20h-191v700h191q70 0 132.5 -20t108.5 -62.5t73 -108.5t27 -159zM516 350q0 55 -13 100.5t-41.5 78.5t-73 51t-106.5 18h-86v-496h86q62 0 106.5 18t73 51t41.5 78.5t13 100.5z" />
    <glyph glyph-name="E" unicode="E" horiz-adv-x="615" 
d="M91 0v700h451v-102h-346v-173h201v-102h-201v-221h361v-102h-466z" />
    <glyph glyph-name="F" unicode="F" horiz-adv-x="582" 
d="M196 597v-183h201v-103h-201v-311h-105v700h451v-103h-346z" />
    <glyph glyph-name="G" unicode="G" horiz-adv-x="678" 
d="M620 274q0 -68 -19.5 -120.5t-55 -89.5t-84.5 -56t-107 -19q-68 0 -122.5 26.5t-93 74.5t-59.5 114t-21 146q0 79 21 145.5t59.5 114.5t93 74.5t122.5 26.5q86 0 144 -33.5t94 -97.5l-92 -57q-27 43 -59.5 63t-86.5 20q-92 0 -140.5 -69t-48.5 -187t48.5 -187t140.5 -69
q43 0 73 13t49 34.5t28 50t9 59.5v3h-114v101h221v-81v0z" />
    <glyph glyph-name="H" unicode="H" horiz-adv-x="714" 
d="M518 0v314h-322v-314h-105v700h105v-283h322v283h105v-700h-105z" />
    <glyph glyph-name="I" unicode="I" horiz-adv-x="297" 
d="M96 0v700h105v-700h-105z" />
    <glyph glyph-name="J" unicode="J" horiz-adv-x="603" 
d="M517 276q0 -142 -60.5 -214.5t-188.5 -72.5q-99 0 -158.5 49t-85.5 137l102 30q20 -54 54 -82.5t91 -28.5q76 0 108.5 45t32.5 145v416h105v-424v0z" />
    <glyph glyph-name="K" unicode="K" horiz-adv-x="685" 
d="M524 0l-201 359l-130 -157v-202h-102v700h102v-240v-27.5t-0.5 -36t-1 -35.5t-0.5 -25q4 7 14 20t22 28.5t24 30.5t21 26l207 259h119l-205 -254l250 -446h-119z" />
    <glyph glyph-name="L" unicode="L" horiz-adv-x="595" 
d="M91 0v700h105v-597h349v-103h-454z" />
    <glyph glyph-name="M" unicode="M" horiz-adv-x="808" 
d="M614 0v370v34t0.5 35.5t1 31.5t0.5 22l-19 -47.5t-26 -62.5l-170 -394l-168 394q-13 30 -26 62.5l-19 47.5q0 -8 0.5 -22t1 -31.5t0.5 -35.5v-34v-370h-99v700h108l157 -373q13 -30 27 -64t21 -56q8 22 21 55.5t26 64.5l154 373h112v-700h-103z" />
    <glyph glyph-name="N" unicode="N" horiz-adv-x="714" 
d="M523 0l-279 439q-13 20 -28.5 46t-23.5 40v-31t0.5 -45t0.5 -47.5v-38.5v-363h-102v700h107l266 -427q7 -11 15.5 -25t16.5 -28.5t15 -26.5t11 -19v31.5t-0.5 46t-0.5 48.5v39v361h102v-700h-100z" />
    <glyph glyph-name="O" unicode="O" horiz-adv-x="709" 
d="M651 350q0 -80 -21 -146t-59.5 -114t-93.5 -74.5t-123 -26.5t-122.5 26.5t-93 74.5t-59.5 114t-21 146q0 79 21 145.5t59.5 114.5t93 74.5t122.5 26.5t123 -26.5t93.5 -74.5t59.5 -114.5t21 -145.5zM544 350q0 118 -48.5 187t-141.5 69q-92 0 -140.5 -69t-48.5 -187
t48.5 -187t140.5 -69q93 0 141.5 69t48.5 187z" />
    <glyph glyph-name="P" unicode="P" horiz-adv-x="653" 
d="M609 481q0 -54 -17 -95t-48 -69t-73.5 -42t-93.5 -14h-183v-261h-103v700h293q48 0 89.5 -14t71.5 -41.5t47 -68.5t17 -95zM502 481q0 58 -32.5 89t-87.5 31h-188v-241h188q60 0 90 32t30 89z" />
    <glyph glyph-name="Q" unicode="Q" horiz-adv-x="709" 
d="M651 350q0 -93 -28.5 -166t-79.5 -121l47 -73l-86 -54l-47 72q-49 -19 -103 -19q-68 0 -122.5 26.5t-93 74.5t-59.5 114t-21 146q0 79 21 145.5t59.5 114.5t93 74.5t122.5 26.5t123 -26.5t93.5 -74.5t59.5 -114.5t21 -145.5zM544 350q0 118 -48.5 187t-141.5 69
q-92 0 -140.5 -69t-48.5 -187q0 -59 12.5 -106.5t36.5 -81.5t59 -52t81 -18q14 0 25 1.5t22 3.5l-51 79l86 54l51 -80q30 33 43.5 83.5t13.5 116.5z" />
    <glyph glyph-name="R" unicode="R" horiz-adv-x="694" 
d="M623 491q0 -85 -41 -136t-113 -69l143 -286h-121l-139 277h-158v-277h-103v700h307q46 0 86.5 -12.5t71.5 -38t49 -65t18 -93.5zM517 488q0 55 -32.5 84t-86.5 29h-204v-225h204q53 0 86 27.5t33 84.5z" />
    <glyph glyph-name="S" unicode="S" horiz-adv-x="626" 
d="M560 201q0 -47 -15.5 -86t-47 -67t-80.5 -43.5t-116 -15.5q-77 0 -140.5 30.5t-108.5 82.5l75 73q35 -38 83.5 -60.5t98.5 -22.5q145 0 145 102q0 20 -8 36t-27 29.5t-49 25.5t-74 25q-56 16 -97 33t-68 39.5t-40.5 54.5t-13.5 79q0 45 18 81.5t49 61.5t73.5 38.5
t90.5 13.5q72 0 127 -25t102 -70l-74 -75q-33 34 -72 50.5t-91 16.5q-62 0 -89.5 -26t-27.5 -61q0 -18 7 -32.5t24 -27t47 -24.5t75 -25q52 -16 93.5 -33t70.5 -41t44.5 -57t15.5 -80z" />
    <glyph glyph-name="T" unicode="T" horiz-adv-x="607" 
d="M356 597v-597h-105v597h-204v103h513v-103h-204z" />
    <glyph glyph-name="U" unicode="U" horiz-adv-x="704" 
d="M618 292q0 -148 -69 -225.5t-200 -77.5q-130 0 -196.5 80t-66.5 225v406h105v-403q0 -100 40.5 -151.5t119.5 -51.5q83 0 122.5 49.5t39.5 146.5v410h105v-408v0z" />
    <glyph glyph-name="V" unicode="V" horiz-adv-x="688" 
d="M401 0h-111l-243 700h114l146 -446q5 -15 11 -33.5t11.5 -36.5t10 -33.5t6.5 -24.5q2 9 6.5 24.5t10 33.5t11.5 37t11 34l144 445h112z" />
    <glyph glyph-name="W" unicode="W" horiz-adv-x="863" 
d="M670 0h-106l-109 452l-5 22.5l-6 27t-5.5 25.5t-3.5 18q-1 -6 -3.5 -18t-5.5 -25.5l-6 -27l-5 -22.5l-114 -452h-104l-143 700h106l84 -442q1 -8 3.5 -20t5 -25t4.5 -25.5t3 -21.5q1 9 3.5 21t5.5 25t5.5 25t4.5 20l112 443h90l114 -453q4 -14 9 -38t8 -43q4 20 8 44.5
t6 37.5l85 452h102z" />
    <glyph glyph-name="X" unicode="X" horiz-adv-x="659" 
d="M489 0l-79 136q-9 16 -20.5 36.5t-22.5 41t-20 37.5t-14 27l-13.5 -27t-19.5 -37t-22.5 -40.5t-21.5 -37.5l-78 -136h-123l217 361l-203 339h125l64 -113q9 -16 20.5 -37t22.5 -41t20 -37.5t14 -27.5q5 10 14 27t19.5 37.5t22 41t21.5 37.5l65 113h123l-203 -338
l217 -362h-125z" />
    <glyph glyph-name="Y" unicode="Y" horiz-adv-x="689" 
d="M397 277v-277h-105v277l-251 423h123l109 -193q9 -16 19.5 -36t21 -39.5t18.5 -36.5t13 -27q4 10 12.5 26.5t18.5 35.5t21 39t20 37l110 194h121z" />
    <glyph glyph-name="Z" unicode="Z" horiz-adv-x="664" 
d="M60 0v102l342 413q8 10 19 23t22 25.5t21 23.5t17 18q-11 0 -28.5 -0.5t-37.5 -1t-40 -0.5h-35h-260v97h512v-102l-338 -413q-8 -10 -19 -23t-22 -25.5t-21 -23.5t-17 -18q10 0 28 0.5t38 1t40 0.5h35h276v-97h-532z" />
    <glyph glyph-name="bracketleft" unicode="[" horiz-adv-x="380" 
d="M95 -110v810h222v-85h-123v-640h123v-85h-222z" />
    <glyph glyph-name="backslash" unicode="\" horiz-adv-x="446" 
d="M327 -90l-311 880h103l311 -880h-103z" />
    <glyph glyph-name="bracketright" unicode="]" horiz-adv-x="380" 
d="M63 -110v85h123v640h-123v85h222v-810h-222z" />
    <glyph glyph-name="asciicircum" unicode="^" horiz-adv-x="578" 
d="M416 382l-128 209l-128 -209h-113l202 318h80l202 -318h-115z" />
    <glyph glyph-name="underscore" unicode="_" horiz-adv-x="500" 
d="M0 -177v95h500v-95h-500z" />
    <glyph glyph-name="grave" unicode="`" horiz-adv-x="500" 
d="M265 595l-165 160h140l107 -160h-82z" />
    <glyph glyph-name="a" unicode="a" horiz-adv-x="550" 
d="M377 0v52q-27 -27 -64 -45t-80 -18q-32 0 -64.5 9.5t-58.5 30.5t-42.5 55t-16.5 82q0 44 16 76t44 53t66 31t83 10q72 0 117 -20v39q0 43 -25.5 66t-73.5 23q-41 0 -73.5 -8t-63.5 -25l-40 78q38 23 81 35t99 12q88 0 142.5 -43.5t54.5 -132.5v-360h-101zM377 224
q-21 11 -49.5 17t-70.5 6q-50 0 -79 -21t-29 -57q0 -39 25 -63t76 -24q42 0 75.5 21t51.5 46v75z" />
    <glyph glyph-name="b" unicode="b" 
d="M517 254q0 -68 -17 -117.5t-45.5 -82.5t-66 -49t-78.5 -16q-40 0 -75 18t-57 42v-49h-102v676l102 53v-254q29 26 62 43.5t75 17.5t79 -16t64.5 -50t43 -87.5t15.5 -128.5zM414 251q0 100 -30.5 145t-87.5 45q-37 0 -68 -20.5t-51 -46.5v-221q9 -12 22 -24t29 -22
t34 -16.5t38 -6.5q56 0 85 41.5t29 125.5z" />
    <glyph glyph-name="c" unicode="c" horiz-adv-x="522" 
d="M406 374q-32 33 -62.5 48.5t-65.5 15.5q-57 0 -90 -46.5t-33 -127.5q0 -39 8 -71.5t24 -56t39.5 -36.5t54.5 -13q37 0 62.5 16.5t56.5 48.5l66 -65q-15 -20 -33 -37.5t-40.5 -31t-50.5 -21.5t-64 -8q-48 0 -89.5 19.5t-72 55t-48 85.5t-17.5 112q0 65 18 116t49 86.5
t73 54t90 18.5q58 0 103.5 -22.5t82.5 -66.5z" />
    <glyph glyph-name="d" unicode="d" 
d="M392 0v50q-29 -26 -62 -43.5t-75 -17.5t-79 16t-64.5 50t-43 87.5t-15.5 128.5q0 67 17 117t45.5 83t66 49t78.5 16q40 0 75 -18t57 -42v200l102 53v-729h-102zM393 372q-9 12 -22 24t-29 22t-34.5 16.5t-37.5 6.5q-56 0 -85 -41.5t-29 -125.5q0 -100 30.5 -145t87.5 -45
q37 0 68 20.5t51 46.5v221z" />
    <glyph glyph-name="e" unicode="e" horiz-adv-x="554" 
d="M502 273q0 -14 -1 -26.5t-2 -20.5h-347q4 -38 16 -65t30 -44.5t40 -26t46 -8.5q33 0 60.5 11t53.5 31l61 -66q-35 -33 -78 -51t-103 -18q-46 0 -87.5 18t-72.5 53t-49 86t-18 116q0 67 17 118t47 85.5t72.5 52.5t93.5 18q56 0 97.5 -21t69 -57t41 -84t13.5 -101zM398 311
q-2 27 -9.5 51t-22.5 42t-37.5 28.5t-54.5 10.5q-52 0 -82.5 -34.5t-37.5 -97.5h244z" />
    <glyph glyph-name="f" unicode="f" horiz-adv-x="362" 
d="M322 626q-34 10 -60 10t-37 -11t-11 -40v-60h97v-96h-97v-429h-103v429h-68v96h68v69q0 36 10.5 61t28.5 41t42 23t52 7q20 0 40.5 -2.5t37.5 -7.5v-90v0z" />
    <glyph glyph-name="g" unicode="g" 
d="M494 50q0 -60 -12 -104.5t-40.5 -74.5t-76.5 -46t-119 -18l-35 78q55 3 90.5 12t55 27.5t27 47t7.5 69.5v9q-29 -26 -61.5 -43.5t-74.5 -17.5t-79 16t-64 50t-43 87.5t-16 128.5q0 67 17 117t46 83t66 49t78 16q40 0 75 -18t56 -42v49h103v-475zM393 372q-9 12 -22 24
t-29 22t-34.5 16.5t-37.5 6.5q-56 0 -85 -41.5t-29 -125.5q0 -100 30.5 -145t87.5 -45q37 0 68 20.5t51 46.5v221z" />
    <glyph glyph-name="h" unicode="h" 
d="M395 0v297q0 80 -28.5 112t-79.5 32q-52 0 -80 -35t-28 -99v-307h-103v675l103 54v-254q20 29 55.5 45t76.5 16q92 0 139.5 -59t47.5 -176v-301h-103z" />
    <glyph glyph-name="i" unicode="i" horiz-adv-x="265" 
d="M199 659q0 -27 -19.5 -46.5t-46.5 -19.5q-28 0 -47.5 19.5t-19.5 46.5q0 28 19.5 47.5t47.5 19.5q27 0 46.5 -19.5t19.5 -47.5zM81 0v525h103v-525h-103z" />
    <glyph glyph-name="j" unicode="j" horiz-adv-x="265" 
d="M199 659q0 -27 -19.5 -46.5t-46.5 -19.5q-28 0 -47.5 19.5t-19.5 46.5q0 28 19.5 47.5t47.5 19.5q27 0 46.5 -19.5t19.5 -47.5zM184 24q0 -50 -7.5 -85.5t-27 -61t-54.5 -42.5t-89 -28l-35 78q36 10 57.5 20t33.5 25t15.5 36.5t3.5 55.5v503h103v-501z" />
    <glyph glyph-name="k" unicode="k" horiz-adv-x="529" 
d="M375 0l-116 261l-80 -106v-155h-103v675l103 54v-331v-27.5t-0.5 -31t-0.5 -29.5v-24q11 16 27.5 41.5t30.5 44.5l109 153h117l-133 -176l158 -349h-112z" />
    <glyph glyph-name="l" unicode="l" horiz-adv-x="265" 
d="M81 0v675l103 54v-729h-103z" />
    <glyph glyph-name="m" unicode="m" horiz-adv-x="861" 
d="M686 0v297q0 80 -25 112t-76 32q-52 0 -76.5 -35t-24.5 -99v-307h-103v297q0 80 -25 112t-76 32q-52 0 -76.5 -35t-24.5 -99v-307h-103v525h103v-50q20 29 52 45t73 16q54 0 88.5 -19.5t55.5 -57.5q14 18 29.5 32t34.5 24t42.5 15.5t54.5 5.5q92 0 136 -59t44 -176v-301
h-103z" />
    <glyph glyph-name="n" unicode="n" 
d="M395 0v297q0 80 -28.5 112t-79.5 32q-52 0 -80 -35t-28 -99v-307h-103v525h103v-50q20 29 55.5 45t76.5 16q92 0 139.5 -59t47.5 -176v-301h-103z" />
    <glyph glyph-name="o" unicode="o" 
d="M519 265q0 -65 -18 -116.5t-50 -87t-75 -54t-94 -18.5q-50 0 -92 19.5t-73 55.5t-48.5 86t-17.5 112q0 64 18 115t49.5 86.5t74 54t92.5 18.5t93 -19.5t74.5 -54.5t49 -85.5t17.5 -111.5zM415 262q0 81 -35.5 128.5t-98.5 47.5q-59 0 -92.5 -47.5t-33.5 -125.5
q0 -87 36 -132.5t95 -45.5q29 0 53 14t41 37.5t26 55.5t9 68z" />
    <glyph glyph-name="p" unicode="p" 
d="M517 254q0 -68 -17 -117.5t-45.5 -82.5t-66 -49t-78.5 -16q-40 0 -75 18t-57 42v-189l-102 -53v718h102v-50q29 26 62 43.5t75 17.5t79 -16t64.5 -50t43 -87.5t15.5 -128.5zM414 251q0 100 -30.5 145t-87.5 45q-37 0 -68 -20.5t-51 -46.5v-221q9 -12 22 -24t29 -22
t34 -16.5t38 -6.5q56 0 85 41.5t29 125.5z" />
    <glyph glyph-name="q" unicode="q" 
d="M392 -193v243q-29 -26 -62 -43.5t-75 -17.5t-79 16t-64.5 50t-43 87.5t-15.5 128.5q0 67 17 117t45.5 83t66 49t78.5 16q40 0 75 -18t57 -42v49h102v-665zM393 372q-9 12 -22 24t-29 22t-34.5 16.5t-37.5 6.5q-56 0 -85 -41.5t-29 -125.5q0 -100 30.5 -145t87.5 -45
q37 0 68 20.5t51 46.5v221z" />
    <glyph glyph-name="r" unicode="r" horiz-adv-x="418" 
d="M361 416q-17 9 -35 14t-44 5q-49 0 -76 -34t-27 -101v-300h-103v525h103v-50q18 26 49.5 43.5t70.5 17.5q32 0 52.5 -5.5t36.5 -16.5z" />
    <glyph glyph-name="s" unicode="s" horiz-adv-x="499" 
d="M443 144q0 -44 -16.5 -73.5t-43.5 -47.5t-62.5 -26t-74.5 -8q-54 0 -107.5 19t-93.5 48l47 78q37 -26 76.5 -39t76.5 -13q96 0 96 58q0 30 -32.5 48t-89.5 40q-42 16 -71.5 32.5t-48 35.5t-26.5 42.5t-8 54.5q0 35 13 62t37 45t57 27t72 9q50 0 96.5 -16t81.5 -42
l-45 -79q-32 23 -65 34t-71 11t-55 -13.5t-17 -34.5q0 -10 4 -18.5t15 -17.5t29.5 -18.5t48.5 -21.5q44 -17 77 -32.5t55.5 -35t33.5 -45.5t11 -63z" />
    <glyph glyph-name="t" unicode="t" horiz-adv-x="403" 
d="M327 13q-19 -11 -44.5 -17.5t-56.5 -6.5q-55 0 -86.5 34t-31.5 105v303h-75v94h75v150l101 54v-204h130v-94h-130v-285q0 -37 12.5 -50t41.5 -13q20 0 41 6.5t35 14.5z" />
    <glyph glyph-name="u" unicode="u" 
d="M391 0v50q-20 -29 -55.5 -45t-76.5 -16q-92 0 -139.5 59t-47.5 176v301h103v-297q0 -80 28.5 -112t79.5 -32q52 0 80 35t28 99v307h103v-525h-103z" />
    <glyph glyph-name="v" unicode="v" horiz-adv-x="542" 
d="M324 0h-103l-188 525h108l94 -285q13 -38 23.5 -72.5t15.5 -56.5q5 22 14.5 56.5t21.5 72.5l90 285h109z" />
    <glyph glyph-name="w" unicode="w" horiz-adv-x="741" 
d="M555 0h-88l-71 265q-8 30 -15.5 61.5t-11.5 50.5q-4 -19 -11.5 -51t-15.5 -62l-70 -264h-88l-144 525h102l62 -255q8 -30 15 -63t11 -52l13 52t16 63l70 255h83l71 -256q8 -31 15.5 -62.5t12.5 -51.5q5 20 11.5 52.5t14.5 62.5l62 255h102z" />
    <glyph glyph-name="x" unicode="x" horiz-adv-x="531" 
d="M369 0l-50 91q-16 29 -31.5 60t-23.5 46q-3 -8 -9.5 -20.5t-14.5 -27t-17 -30.5t-16 -29l-51 -90h-116l165 272l-154 253h119l41 -74q16 -29 32 -59.5t23 -45.5q4 7 10.5 19.5t14 27.5t15.5 30.5t16 29.5l40 72h118l-155 -253l166 -272h-122z" />
    <glyph glyph-name="y" unicode="y" horiz-adv-x="556" 
d="M259 -185h-109l76 195l-193 515h113l86 -257q6 -17 13 -39t13.5 -44t12 -40.5t7.5 -29.5q3 12 8.5 30.5t12 39.5t13.5 42.5t13 38.5l89 259h109z" />
    <glyph glyph-name="z" unicode="z" horiz-adv-x="527" 
d="M58 0v84l225 275q16 20 34 42t29 34h-19h-25.5h-26.5h-23h-174v90h385v-83l-220 -275l-34 -42.5t-29 -34.5h19.5h26h27h23.5h187v-90h-405z" />
    <glyph glyph-name="braceleft" unicode="{" horiz-adv-x="425" 
d="M372 -110q-122 0 -176.5 52.5t-54.5 158.5v64q0 52 -11.5 69.5t-45.5 17.5h-23v89h23q34 0 45.5 17.5t11.5 69.5v65q0 106 54.5 159t176.5 53v-76q-36 -4 -60.5 -13.5t-39.5 -25.5t-21 -38.5t-6 -52.5v-47q0 -35 -4 -61t-13 -44.5t-23.5 -30.5t-35.5 -20q43 -15 59.5 -50
t16.5 -105v-47q0 -59 27 -89.5t100 -37.5v-77v0z" />
    <glyph glyph-name="bar" unicode="|" horiz-adv-x="295" 
d="M100 -185v985h95v-985h-95z" />
    <glyph glyph-name="braceright" unicode="}" horiz-adv-x="425" 
d="M341 254q-34 0 -45.5 -17.5t-11.5 -69.5v-65q0 -106 -54.5 -159t-176.5 -53v76q73 7 100 38.5t27 91.5v47q0 35 4 61t13 44.5t23.5 30.5t35.5 20q-21 7 -35.5 19t-23.5 30.5t-13 44.5t-4 61v47q0 30 -6 52t-21 37.5t-39.5 24.5t-60.5 13v77q122 0 176.5 -52.5
t54.5 -158.5v-64q0 -52 11.5 -69.5t45.5 -17.5h23v-89h-23z" />
    <glyph glyph-name="asciitilde" unicode="~" horiz-adv-x="562" 
d="M520 424q-27 -69 -62 -105t-91 -36q-31 0 -51 8.5t-45 25.5q-32 22 -50.5 31t-32.5 9q-24 0 -38.5 -16.5t-35.5 -59.5l-72 37q27 69 62 105t91 36q31 0 51 -8.5t45 -25.5q58 -40 82 -40q12 0 21.5 3.5t17.5 12.5t16.5 23.5t19.5 36.5l72 -37v0z" />
    <glyph glyph-name="Adieresis" unicode="&#xc4;" horiz-adv-x="712" 
d="M553 0l-59 166h-280l-58 -166h-109l252 700h111l255 -700h-112zM406 421q-6 19 -14 42t-15.5 46t-14 42.5t-9.5 30.5q-3 -11 -9 -30.5t-13 -42t-14.5 -46.5t-14.5 -43l-56 -160h216zM517 812q0 -27 -20 -47t-47 -20q-28 0 -48 20t-20 47q0 28 20 48t48 20q27 0 47 -20
t20 -48zM322 812q0 -27 -20 -47t-47 -20q-28 0 -48 20t-20 47q0 28 20 48t48 20q27 0 47 -20t20 -48z" />
    <glyph glyph-name="Aring" unicode="&#xc5;" horiz-adv-x="712" 
d="M550 0l-58 163h-275l-57 -163h-113l234 650q-24 17 -38.5 44t-14.5 60q0 27 9.5 50t26.5 40t40 26.5t50 9.5t50 -9.5t40 -26.5t26.5 -40t9.5 -50q0 -33 -14 -59.5t-38 -43.5l237 -651h-115zM415 754q0 26 -17.5 43.5t-43.5 17.5t-43.5 -17.5t-17.5 -43.5t17.5 -43.5
t43.5 -17.5t43.5 17.5t17.5 43.5zM401 421q-6 16 -12.5 36t-13.5 40t-12.5 37t-8.5 27q-3 -10 -8.5 -27t-12 -36.5t-13 -38.5t-11.5 -34l-56 -161h203z" />
    <glyph glyph-name="Ccedilla" unicode="&#xc7;" horiz-adv-x="655" 
d="M595 123q-37 -63 -96.5 -97.5t-137.5 -36.5l-6 -34q9 4 20 6.5t28 2.5q13 0 25.5 -4t23 -12.5t17 -21.5t6.5 -32q0 -24 -9.5 -40.5t-26 -27t-39 -15t-47.5 -4.5q-36 0 -66 9.5t-57 26.5l22 33q20 -11 42.5 -17.5t45.5 -6.5q33 0 48.5 11t15.5 28q0 15 -9 23.5t-23 8.5
t-23 -4t-17 -11l-36 14l14 70q-58 8 -104.5 38t-79.5 76.5t-50.5 108.5t-17.5 135q0 79 21 145.5t59.5 114.5t93 74.5t122.5 26.5q86 0 144 -33.5t94 -97.5l-93 -58q-27 43 -59 63.5t-86 20.5q-92 0 -140 -69t-48 -187t48 -187t140 -69q55 0 91 22t63 65l87 -58v0z" />
    <glyph glyph-name="Eacute" unicode="&#xc9;" horiz-adv-x="615" 
d="M91 0v700h451v-102h-346v-173h201v-102h-201v-221h361v-102h-466zM332 745h-82l107 160h140z" />
    <glyph glyph-name="Ntilde" unicode="&#xd1;" horiz-adv-x="714" 
d="M523 0l-279 439q-13 20 -28.5 46t-23.5 40v-31t0.5 -45t0.5 -47.5v-38.5v-363h-102v700h107l266 -427q7 -11 15.5 -25t16.5 -28.5t15 -26.5t11 -19v31.5t-0.5 46t-0.5 48.5v39v361h102v-700h-100zM550 880q0 -67 -30 -101.5t-75 -34.5q-14 0 -27 2.5t-26.5 7.5
t-29.5 13.5t-35 20.5q-11 6 -21 10t-18 4q-17 0 -26 -12t-13 -43h-71q0 67 30 101.5t75 34.5q28 0 53.5 -10t64.5 -34q11 -6 21 -10t18 -4q17 0 26 12t13 43h71v0z" />
    <glyph glyph-name="Odieresis" unicode="&#xd6;" horiz-adv-x="709" 
d="M651 350q0 -80 -21 -146t-59.5 -114t-93.5 -74.5t-123 -26.5t-122.5 26.5t-93 74.5t-59.5 114t-21 146q0 79 21 145.5t59.5 114.5t93 74.5t122.5 26.5t123 -26.5t93.5 -74.5t59.5 -114.5t21 -145.5zM544 350q0 118 -48.5 187t-141.5 69q-92 0 -140.5 -69t-48.5 -187
t48.5 -187t140.5 -69q93 0 141.5 69t48.5 187zM515 812q0 -27 -20 -47t-47 -20q-28 0 -48 20t-20 47q0 28 20 48t48 20q27 0 47 -20t20 -48zM320 812q0 -27 -20 -47t-47 -20q-28 0 -48 20t-20 47q0 28 20 48t48 20q27 0 47 -20t20 -48z" />
    <glyph glyph-name="Udieresis" unicode="&#xdc;" horiz-adv-x="704" 
d="M618 292q0 -148 -69 -225.5t-200 -77.5q-130 0 -196.5 80t-66.5 225v406h105v-403q0 -100 40.5 -151.5t119.5 -51.5q83 0 122.5 49.5t39.5 146.5v410h105v-408v0zM517 812q0 -27 -20 -47t-47 -20q-28 0 -48 20t-20 47q0 28 20 48t48 20q27 0 47 -20t20 -48zM322 812
q0 -27 -20 -47t-47 -20q-28 0 -48 20t-20 47q0 28 20 48t48 20q27 0 47 -20t20 -48z" />
    <glyph glyph-name="aacute" unicode="&#xe1;" horiz-adv-x="550" 
d="M377 0v52q-27 -27 -64 -45t-80 -18q-32 0 -64.5 9.5t-58.5 30.5t-42.5 55t-16.5 82q0 44 16 76t44 53t66 31t83 10q72 0 117 -20v39q0 43 -25.5 66t-73.5 23q-41 0 -73.5 -8t-63.5 -25l-40 78q38 23 81 35t99 12q88 0 142.5 -43.5t54.5 -132.5v-360h-101zM377 224
q-21 11 -49.5 17t-70.5 6q-50 0 -79 -21t-29 -57q0 -39 25 -63t76 -24q42 0 75.5 21t51.5 46v75zM299 595h-82l107 160h140z" />
    <glyph glyph-name="agrave" unicode="&#xe0;" horiz-adv-x="550" 
d="M377 0v52q-27 -27 -64 -45t-80 -18q-32 0 -64.5 9.5t-58.5 30.5t-42.5 55t-16.5 82q0 44 16 76t44 53t66 31t83 10q72 0 117 -20v39q0 43 -25.5 66t-73.5 23q-41 0 -73.5 -8t-63.5 -25l-40 78q38 23 81 35t99 12q88 0 142.5 -43.5t54.5 -132.5v-360h-101zM377 224
q-21 11 -49.5 17t-70.5 6q-50 0 -79 -21t-29 -57q0 -39 25 -63t76 -24q42 0 75.5 21t51.5 46v75zM260 595l-165 160h140l107 -160h-82z" />
    <glyph glyph-name="acircumflex" unicode="&#xe2;" horiz-adv-x="550" 
d="M377 0v52q-27 -27 -64 -45t-80 -18q-32 0 -64.5 9.5t-58.5 30.5t-42.5 55t-16.5 82q0 44 16 76t44 53t66 31t83 10q72 0 117 -20v39q0 43 -25.5 66t-73.5 23q-41 0 -73.5 -8t-63.5 -25l-40 78q38 23 81 35t99 12q88 0 142.5 -43.5t54.5 -132.5v-360h-101zM377 224
q-21 11 -49.5 17t-70.5 6q-50 0 -79 -21t-29 -57q0 -39 25 -63t76 -24q42 0 75.5 21t51.5 46v75zM372 591l-95 88l-95 -88h-81l117 160h120l117 -160h-83z" />
    <glyph glyph-name="adieresis" unicode="&#xe4;" horiz-adv-x="550" 
d="M377 0v52q-27 -27 -64 -45t-80 -18q-32 0 -64.5 9.5t-58.5 30.5t-42.5 55t-16.5 82q0 44 16 76t44 53t66 31t83 10q72 0 117 -20v39q0 43 -25.5 66t-73.5 23q-41 0 -73.5 -8t-63.5 -25l-40 78q38 23 81 35t99 12q88 0 142.5 -43.5t54.5 -132.5v-360h-101zM377 224
q-21 11 -49.5 17t-70.5 6q-50 0 -79 -21t-29 -57q0 -39 25 -63t76 -24q42 0 75.5 21t51.5 46v75zM443 658q0 -27 -20 -47t-47 -20q-28 0 -48 20t-20 47q0 28 20 48t48 20q27 0 47 -20t20 -48zM248 658q0 -27 -20 -47t-47 -20q-28 0 -48 20t-20 47q0 28 20 48t48 20
q27 0 47 -20t20 -48z" />
    <glyph glyph-name="atilde" unicode="&#xe3;" horiz-adv-x="550" 
d="M377 0v52q-27 -27 -64 -45t-80 -18q-32 0 -64.5 9.5t-58.5 30.5t-42.5 55t-16.5 82q0 44 16 76t44 53t66 31t83 10q72 0 117 -20v39q0 43 -25.5 66t-73.5 23q-41 0 -73.5 -8t-63.5 -25l-40 78q38 23 81 35t99 12q88 0 142.5 -43.5t54.5 -132.5v-360h-101zM377 224
q-21 11 -49.5 17t-70.5 6q-50 0 -79 -21t-29 -57q0 -39 25 -63t76 -24q42 0 75.5 21t51.5 46v75zM459 728q0 -67 -30 -101.5t-75 -34.5q-14 0 -27 2.5t-26.5 7.5t-29.5 13.5t-35 20.5q-11 6 -21 10t-18 4q-17 0 -26 -12t-13 -43h-71q0 67 30 101.5t75 34.5q28 0 53.5 -10
t64.5 -34q11 -6 21 -10t18 -4q17 0 26 12t13 43h71v0z" />
    <glyph glyph-name="aring" unicode="&#xe5;" horiz-adv-x="550" 
d="M377 0v52q-27 -27 -64 -45t-80 -18q-32 0 -64.5 9.5t-58.5 30.5t-42.5 55t-16.5 82q0 44 16 76t44 53t66 31t83 10q72 0 117 -20v39q0 43 -25.5 66t-73.5 23q-41 0 -73.5 -8t-63.5 -25l-40 78q38 23 81 35t99 12q88 0 142.5 -43.5t54.5 -132.5v-360h-101zM377 224
q-21 11 -49.5 17t-70.5 6q-50 0 -79 -21t-29 -57q0 -39 25 -63t76 -24q42 0 75.5 21t51.5 46v75zM404 720q0 -27 -9.5 -50t-26.5 -39.5t-40 -26t-50 -9.5t-50 9.5t-40 26t-26.5 39.5t-9.5 50t9.5 50t26.5 40t40 26.5t50 9.5t50 -9.5t40 -26.5t26.5 -40t9.5 -50zM339 720
q0 27 -17.5 44.5t-43.5 17.5t-43.5 -17.5t-17.5 -44.5t17.5 -44.5t43.5 -17.5t43.5 17.5t17.5 44.5z" />
    <glyph glyph-name="ccedilla" unicode="&#xe7;" horiz-adv-x="522" 
d="M406 374q-32 33 -62.5 48.5t-65.5 15.5q-57 0 -90 -46.5t-33 -127.5q0 -39 8 -71.5t24 -56t39.5 -36.5t54.5 -13q37 0 62.5 16.5t56.5 48.5l66 -65q-15 -19 -32.5 -36.5t-39.5 -31t-49 -21.5t-61 -9l-6 -34q9 4 20 6.5t28 2.5q13 0 25.5 -4t23 -12.5t17 -21.5t6.5 -32
q0 -24 -9.5 -40.5t-26 -27t-39 -15t-47.5 -4.5q-36 0 -66 9.5t-57 26.5l22 33q20 -11 42.5 -17.5t45.5 -6.5q33 0 48.5 11t15.5 28q0 15 -9 23.5t-23 8.5t-23 -4t-17 -11l-36 14l14 72q-39 8 -72.5 30.5t-58 57t-38 80t-13.5 99.5q0 65 18 116t49 86.5t73 54t90 18.5
q58 0 103.5 -22.5t82.5 -66.5z" />
    <glyph glyph-name="eacute" unicode="&#xe9;" horiz-adv-x="554" 
d="M502 273q0 -14 -1 -26.5t-2 -20.5h-347q4 -38 16 -65t30 -44.5t40 -26t46 -8.5q33 0 60.5 11t53.5 31l61 -66q-35 -33 -78 -51t-103 -18q-46 0 -87.5 18t-72.5 53t-49 86t-18 116q0 67 17 118t47 85.5t72.5 52.5t93.5 18q56 0 97.5 -21t69 -57t41 -84t13.5 -101zM398 311
q-2 27 -9.5 51t-22.5 42t-37.5 28.5t-54.5 10.5q-52 0 -82.5 -34.5t-37.5 -97.5h244zM297 595h-82l107 160h140z" />
    <glyph glyph-name="egrave" unicode="&#xe8;" horiz-adv-x="554" 
d="M502 273q0 -14 -1 -26.5t-2 -20.5h-347q4 -38 16 -65t30 -44.5t40 -26t46 -8.5q33 0 60.5 11t53.5 31l61 -66q-35 -33 -78 -51t-103 -18q-46 0 -87.5 18t-72.5 53t-49 86t-18 116q0 67 17 118t47 85.5t72.5 52.5t93.5 18q56 0 97.5 -21t69 -57t41 -84t13.5 -101zM398 311
q-2 27 -9.5 51t-22.5 42t-37.5 28.5t-54.5 10.5q-52 0 -82.5 -34.5t-37.5 -97.5h244zM258 595l-165 160h140l107 -160h-82z" />
    <glyph glyph-name="ecircumflex" unicode="&#xea;" horiz-adv-x="554" 
d="M502 273q0 -14 -1 -26.5t-2 -20.5h-347q4 -38 16 -65t30 -44.5t40 -26t46 -8.5q33 0 60.5 11t53.5 31l61 -66q-35 -33 -78 -51t-103 -18q-46 0 -87.5 18t-72.5 53t-49 86t-18 116q0 67 17 118t47 85.5t72.5 52.5t93.5 18q56 0 97.5 -21t69 -57t41 -84t13.5 -101zM398 311
q-2 27 -9.5 51t-22.5 42t-37.5 28.5t-54.5 10.5q-52 0 -82.5 -34.5t-37.5 -97.5h244zM370 586l-95 88l-95 -88h-81l117 160h120l117 -160h-83z" />
    <glyph glyph-name="edieresis" unicode="&#xeb;" horiz-adv-x="554" 
d="M502 273q0 -14 -1 -26.5t-2 -20.5h-347q4 -38 16 -65t30 -44.5t40 -26t46 -8.5q33 0 60.5 11t53.5 31l61 -66q-35 -33 -78 -51t-103 -18q-46 0 -87.5 18t-72.5 53t-49 86t-18 116q0 67 17 118t47 85.5t72.5 52.5t93.5 18q56 0 97.5 -21t69 -57t41 -84t13.5 -101zM398 311
q-2 27 -9.5 51t-22.5 42t-37.5 28.5t-54.5 10.5q-52 0 -82.5 -34.5t-37.5 -97.5h244zM441 658q0 -27 -20 -47t-47 -20q-28 0 -48 20t-20 47q0 28 20 48t48 20q27 0 47 -20t20 -48zM246 658q0 -27 -20 -47t-47 -20q-28 0 -48 20t-20 47q0 28 20 48t48 20q27 0 47 -20t20 -48z
" />
    <glyph glyph-name="iacute" unicode="&#xed;" horiz-adv-x="265" 
d="M80 0v525h103v-525h-103zM166 595h-82l107 160h140z" />
    <glyph glyph-name="igrave" unicode="&#xec;" horiz-adv-x="265" 
d="M-61 0v525h103v-525h-103zM104 595l-165 160h140l107 -160h-82z" />
    <glyph glyph-name="icircumflex" unicode="&#xee;" horiz-adv-x="265" 
d="M-45 0v525h103v-525h-103zM226 580l-95 88l-95 -88h-81l117 160h120l117 -160h-83z" />
    <glyph glyph-name="idieresis" unicode="&#xef;" horiz-adv-x="265" 
d="M-34 0v525h103v-525h-103zM296 652q0 -27 -20 -47t-47 -20q-28 0 -48 20t-20 47q0 28 20 48t48 20q27 0 47 -20t20 -48zM101 652q0 -27 -20 -47t-47 -20q-28 0 -48 20t-20 47q0 28 20 48t48 20q27 0 47 -20t20 -48z" />
    <glyph glyph-name="ntilde" unicode="&#xf1;" 
d="M395 0v297q0 80 -28.5 112t-79.5 32q-52 0 -80 -35t-28 -99v-307h-103v525h103v-50q20 29 55.5 45t76.5 16q92 0 139.5 -59t47.5 -176v-301h-103zM465 728q0 -67 -30 -101.5t-75 -34.5q-14 0 -27 2.5t-26.5 7.5t-29.5 13.5t-35 20.5q-11 6 -21 10t-18 4q-17 0 -26 -12
t-13 -43h-71q0 67 30 101.5t75 34.5q28 0 53.5 -10t64.5 -34q11 -6 21 -10t18 -4q17 0 26 12t13 43h71v0z" />
    <glyph glyph-name="oacute" unicode="&#xf3;" 
d="M519 265q0 -65 -18 -116.5t-50 -87t-75 -54t-94 -18.5q-50 0 -92 19.5t-73 55.5t-48.5 86t-17.5 112q0 64 18 115t49.5 86.5t74 54t92.5 18.5t93 -19.5t74.5 -54.5t49 -85.5t17.5 -111.5zM415 262q0 81 -35.5 128.5t-98.5 47.5q-59 0 -92.5 -47.5t-33.5 -125.5
q0 -87 36 -132.5t95 -45.5q29 0 53 14t41 37.5t26 55.5t9 68zM303 595h-82l107 160h140z" />
    <glyph glyph-name="ograve" unicode="&#xf2;" 
d="M519 265q0 -65 -18 -116.5t-50 -87t-75 -54t-94 -18.5q-50 0 -92 19.5t-73 55.5t-48.5 86t-17.5 112q0 64 18 115t49.5 86.5t74 54t92.5 18.5t93 -19.5t74.5 -54.5t49 -85.5t17.5 -111.5zM415 262q0 81 -35.5 128.5t-98.5 47.5q-59 0 -92.5 -47.5t-33.5 -125.5
q0 -87 36 -132.5t95 -45.5q29 0 53 14t41 37.5t26 55.5t9 68zM264 595l-165 160h140l107 -160h-82z" />
    <glyph glyph-name="ocircumflex" unicode="&#xf4;" 
d="M519 265q0 -65 -18 -116.5t-50 -87t-75 -54t-94 -18.5q-50 0 -92 19.5t-73 55.5t-48.5 86t-17.5 112q0 64 18 115t49.5 86.5t74 54t92.5 18.5t93 -19.5t74.5 -54.5t49 -85.5t17.5 -111.5zM415 262q0 81 -35.5 128.5t-98.5 47.5q-59 0 -92.5 -47.5t-33.5 -125.5
q0 -87 36 -132.5t95 -45.5q29 0 53 14t41 37.5t26 55.5t9 68zM376 586l-95 88l-95 -88h-81l117 160h120l117 -160h-83z" />
    <glyph glyph-name="odieresis" unicode="&#xf6;" 
d="M519 265q0 -65 -18 -116.5t-50 -87t-75 -54t-94 -18.5q-50 0 -92 19.5t-73 55.5t-48.5 86t-17.5 112q0 64 18 115t49.5 86.5t74 54t92.5 18.5t93 -19.5t74.5 -54.5t49 -85.5t17.5 -111.5zM415 262q0 81 -35.5 128.5t-98.5 47.5q-59 0 -92.5 -47.5t-33.5 -125.5
q0 -87 36 -132.5t95 -45.5q29 0 53 14t41 37.5t26 55.5t9 68zM447 653q0 -27 -20 -47t-47 -20q-28 0 -48 20t-20 47q0 28 20 48t48 20q27 0 47 -20t20 -48zM252 653q0 -27 -20 -47t-47 -20q-28 0 -48 20t-20 47q0 28 20 48t48 20q27 0 47 -20t20 -48z" />
    <glyph glyph-name="otilde" unicode="&#xf5;" 
d="M519 265q0 -65 -18 -116.5t-50 -87t-75 -54t-94 -18.5q-50 0 -92 19.5t-73 55.5t-48.5 86t-17.5 112q0 64 18 115t49.5 86.5t74 54t92.5 18.5t93 -19.5t74.5 -54.5t49 -85.5t17.5 -111.5zM415 262q0 81 -35.5 128.5t-98.5 47.5q-59 0 -92.5 -47.5t-33.5 -125.5
q0 -87 36 -132.5t95 -45.5q29 0 53 14t41 37.5t26 55.5t9 68zM463 728q0 -67 -30 -101.5t-75 -34.5q-14 0 -27 2.5t-26.5 7.5t-29.5 13.5t-35 20.5q-11 6 -21 10t-18 4q-17 0 -26 -12t-13 -43h-71q0 67 30 101.5t75 34.5q28 0 53.5 -10t64.5 -34q11 -6 21 -10t18 -4
q17 0 26 12t13 43h71v0z" />
    <glyph glyph-name="uacute" unicode="&#xfa;" 
d="M391 0v50q-20 -29 -55.5 -45t-76.5 -16q-92 0 -139.5 59t-47.5 176v301h103v-297q0 -80 28.5 -112t79.5 -32q52 0 80 35t28 99v307h103v-525h-103zM304 595h-82l107 160h140z" />
    <glyph glyph-name="ugrave" unicode="&#xf9;" 
d="M391 0v50q-20 -29 -55.5 -45t-76.5 -16q-92 0 -139.5 59t-47.5 176v301h103v-297q0 -80 28.5 -112t79.5 -32q52 0 80 35t28 99v307h103v-525h-103zM265 595l-165 160h140l107 -160h-82z" />
    <glyph glyph-name="ucircumflex" unicode="&#xfb;" 
d="M391 0v50q-20 -29 -55.5 -45t-76.5 -16q-92 0 -139.5 59t-47.5 176v301h103v-297q0 -80 28.5 -112t79.5 -32q52 0 80 35t28 99v307h103v-525h-103zM377 595l-95 88l-95 -88h-81l117 160h120l117 -160h-83z" />
    <glyph glyph-name="udieresis" unicode="&#xfc;" 
d="M391 0v50q-20 -29 -55.5 -45t-76.5 -16q-92 0 -139.5 59t-47.5 176v301h103v-297q0 -80 28.5 -112t79.5 -32q52 0 80 35t28 99v307h103v-525h-103zM448 662q0 -27 -20 -47t-47 -20q-28 0 -48 20t-20 47q0 28 20 48t48 20q27 0 47 -20t20 -48zM253 662q0 -27 -20 -47
t-47 -20q-28 0 -48 20t-20 47q0 28 20 48t48 20q27 0 47 -20t20 -48z" />
    <glyph glyph-name="dagger" unicode="&#x2020;" horiz-adv-x="594" 
d="M348 380v-480h-102v480h-191v97h191v223h102v-223h191v-97h-191z" />
    <glyph glyph-name="degree" unicode="&#xb0;" horiz-adv-x="486" 
d="M441 514q0 -42 -15 -78.5t-42 -63.5t-63 -42t-78 -15t-78 15t-62.5 42t-42 63.5t-15.5 78.5q0 41 15.5 77t42 62.5t62.5 42t78 15.5t78 -15.5t63 -42t42 -62.5t15 -77zM351 514q0 22 -8.5 41.5t-23 34.5t-34 23.5t-42.5 8.5t-42.5 -8.5t-34 -23.5t-23 -34.5t-8.5 -41.5
q0 -23 8.5 -43t23 -35t34 -23.5t42.5 -8.5t42.5 8.5t34 23.5t23 35t8.5 43z" />
    <glyph glyph-name="cent" unicode="&#xa2;" horiz-adv-x="522" 
d="M406 471q-32 33 -62.5 48.5t-65.5 15.5q-57 0 -90 -47t-33 -130q0 -40 8 -73t24 -57t39.5 -37t54.5 -13q37 0 64 15.5t57 47.5l64 -60q-25 -32 -57 -57.5t-80 -35.5v-99h-105v101q-38 10 -69.5 33t-54.5 57t-36 78t-13 97q0 55 13 100t36 79t54.5 56.5t69.5 32.5v88h105
v-85q80 -16 138 -85z" />
    <glyph glyph-name="sterling" unicode="&#xa3;" horiz-adv-x="637" 
d="M526 537q-35 34 -81 52t-95 18q-37 0 -62 -6.5t-40 -17.5t-21.5 -26t-6.5 -33q0 -21 9 -44t20 -46q7 -14 13.5 -29t11.5 -32h158v-93h-150q-5 -53 -24 -95.5t-56 -87.5h376v-97h-492v102q22 22 38.5 42.5t27.5 41.5t18 43.5t9 50.5h-93v93h78q-10 25 -21 47
q-14 26 -23 53.5t-9 53.5q0 45 17 79t48.5 57.5t76 35.5t99.5 12q71 0 130 -24t110 -71z" />
    <glyph glyph-name="section" unicode="&#xa7;" horiz-adv-x="660" 
d="M605 251q0 -29 -9.5 -52.5t-25 -43t-35 -35t-39.5 -27.5q16 -18 25 -41t9 -53q0 -35 -13.5 -64.5t-39 -51.5t-62 -34.5t-83.5 -12.5q-59 0 -108 18t-95 54l63 81q36 -29 73 -41t77 -12q42 0 60.5 17t18.5 43q0 20 -15 34.5t-39 25.5t-55.5 21t-64.5 21q-36 12 -70.5 27.5
t-61.5 38.5t-43.5 55t-16.5 77q0 28 9.5 52t25 43.5t35 35t39.5 27.5q-16 18 -25 41t-9 53q0 34 13.5 64t39 52t62 34.5t83.5 12.5q59 0 108 -18t95 -54l-63 -81q-36 29 -73 41t-77 12q-42 0 -60.5 -17t-18.5 -43q0 -20 15 -34.5t39 -25.5t55.5 -21t64.5 -21
q36 -12 70.5 -27.5t61.5 -38.5t43.5 -55t16.5 -77zM497 241q0 24 -10 41.5t-27.5 31t-41 23.5t-49.5 19q-32 11 -64.5 21t-62.5 24q-14 -7 -28 -16.5t-25.5 -21t-18.5 -26t-7 -31.5q0 -24 10 -41.5t27.5 -31t41 -23.5t49.5 -19q32 -11 64.5 -21t62.5 -24q14 7 28 16.5
t25.5 21t18.5 26t7 31.5z" />
    <glyph glyph-name="bullet" unicode="&#x2022;" horiz-adv-x="430" 
d="M365 366q0 -32 -11.5 -59t-32 -47.5t-48 -32t-58.5 -11.5q-32 0 -59 11.5t-47.5 32t-32 47.5t-11.5 59q0 31 11.5 59t32 48.5t47.5 32.5t59 12q31 0 58.5 -12t48 -32.5t32 -48.5t11.5 -59z" />
    <glyph glyph-name="paragraph" unicode="&#xb6;" horiz-adv-x="724" 
d="M536 -185v789h-79v-789h-99v446h-84q-46 0 -87.5 14.5t-72.5 42.5t-49 69t-18 94q0 52 18.5 93t49.5 69t72 42.5t87 14.5h361v-885h-99z" />
    <glyph glyph-name="germandbls" unicode="&#xdf;" horiz-adv-x="581" 
d="M530 226q0 -120 -68.5 -173t-189.5 -53h-12v94h18q68 0 108 29.5t40 96.5q0 33 -12.5 57.5t-33.5 40t-49 23.5t-60 8h-11v93h15q44 0 70.5 24.5t26.5 71.5q0 43 -26 68t-72 25t-70.5 -28t-24.5 -78v-663l-103 -55v714q0 53 14.5 92t41 64t63 37t81.5 12q42 0 78.5 -12.5
t63.5 -36.5t42.5 -58.5t15.5 -77.5q0 -55 -24 -90t-65 -49q25 -6 50.5 -18t46 -32.5t33.5 -51.5t13 -74z" />
    <glyph glyph-name="registered" unicode="&#xae;" horiz-adv-x="836" 
d="M779 350q0 -77 -27.5 -143t-76 -114.5t-114.5 -76t-143 -27.5t-143 27.5t-114.5 76t-76 114.5t-27.5 143t27.5 143t76 114.5t114.5 76t143 27.5t143 -27.5t114.5 -76t76 -114.5t27.5 -143zM721 350q0 64 -23 119.5t-64 96.5t-96.5 64t-119.5 23q-65 0 -120 -23t-96 -64
t-64 -96.5t-23 -119.5q0 -65 23 -120t64 -96t96 -64t120 -23q64 0 119.5 23t96.5 64t64 96t23 120zM583 435q0 -47 -23 -76t-61 -40l81 -159h-79l-77 152h-76v-152h-67v394h173q26 0 49.5 -7t41 -21.5t28 -37t10.5 -53.5zM515 433q0 28 -18 42t-45 14h-104v-112h104
q27 0 45 13.5t18 42.5z" />
    <glyph glyph-name="copyright" unicode="&#xa9;" horiz-adv-x="836" 
d="M779 350q0 -77 -27.5 -143t-76 -114.5t-114.5 -76t-143 -27.5t-143 27.5t-114.5 76t-76 114.5t-27.5 143t27.5 143t76 114.5t114.5 76t143 27.5t143 -27.5t114.5 -76t76 -114.5t27.5 -143zM721 350q0 64 -23 119.5t-64 96.5t-96.5 64t-119.5 23q-65 0 -120 -23t-96 -64
t-64 -96.5t-23 -119.5q0 -65 23 -120t64 -96t96 -64t120 -23q64 0 119.5 23t96.5 64t64 96t23 120zM560 229q-47 -81 -139 -81q-38 0 -69 15t-52.5 42t-33.5 64.5t-12 82.5t12 82.5t33.5 64t52.5 41.5t69 15q49 0 82 -19.5t55 -58.5l-59 -37q-16 25 -32.5 36.5t-45.5 11.5
q-49 0 -73.5 -36.5t-24.5 -99.5t24.5 -100t73.5 -37q29 0 47.5 13t35.5 39z" />
    <glyph glyph-name="trademark" unicode="&#x2122;" horiz-adv-x="770" 
d="M664 306v208v45q-4 -9 -7.5 -19t-8.5 -20l-98 -226l-96 226l-8 20t-8 18q1 -11 1 -22.5v-21.5v-208h-64v394h67l89 -204q5 -13 10.5 -28t10.5 -26q5 12 10 26t11 28l87 204h68v-394h-64zM198 634v-328h-67v328h-112v66h291v-66h-112z" />
    <glyph glyph-name="acute" unicode="&#xb4;" horiz-adv-x="500" 
d="M235 595h-82l107 160h140z" />
    <glyph glyph-name="dieresis" unicode="&#xa8;" horiz-adv-x="500" 
d="M415 662q0 -27 -20 -47t-47 -20q-28 0 -48 20t-20 47q0 28 20 48t48 20q27 0 47 -20t20 -48zM220 662q0 -27 -20 -47t-47 -20q-28 0 -48 20t-20 47q0 28 20 48t48 20q27 0 47 -20t20 -48z" />
    <glyph glyph-name="notequal" unicode="&#x2260;" horiz-adv-x="760" 
d="M573 220q-11 -6 -17 -2q-12 8 -7 18l23 66h-147v-149l65 23q11 4 19 -7q4 -7 -2 -17l-126 -167l-126 167q-6 11 -3 17q9 11 20 7l65 -23v149h-149l23 -66q5 -10 -7 -18q-6 -4 -17 2l-167 126l167 126q12 7 17 3q11 -9 7 -20l-23 -65h149v157l-65 -23q-11 -4 -20 7
q-4 5 3 17l126 167l126 -167q6 -11 2 -17q-8 -11 -19 -7l-65 23v-157h147l-23 65q-4 11 7 20q5 4 17 -3l167 -126z" />
    <glyph glyph-name="AE" unicode="&#xc6;" horiz-adv-x="1018" 
d="M498 0v164h-259l-108 -164h-117l470 700h461v-102h-346v-173h201v-102h-201v-221h361v-102h-462zM500 565q-5 -7 -13.5 -21.5t-19 -31t-21 -34t-19.5 -30.5l-124 -187h195v168q0 15 0.5 34.5t0.5 38.5t0.5 35.5t0.5 27.5z" />
    <glyph glyph-name="Oslash" unicode="&#xd8;" horiz-adv-x="709" 
d="M651 350q0 -80 -21 -146t-59.5 -114t-93.5 -74.5t-123 -26.5q-60 0 -111 21l-27 -60h-98l49 108q-52 48 -80.5 123t-28.5 169q0 79 21 145.5t59.5 114.5t93 74.5t122.5 26.5q55 0 102 -18l26 57h98l-47 -102q57 -48 87.5 -124.5t30.5 -173.5zM544 350q0 66 -13 116
t-42 84l-205 -449q26 -11 70 -11q46 0 81.5 18.5t59.5 52.5t36.5 82t12.5 107zM415 602q-13 4 -27.5 6t-33.5 2q-46 0 -81 -18.5t-59 -52.5t-36.5 -82t-12.5 -107q0 -127 48 -191z" />
    <glyph glyph-name="infinity" unicode="&#x221e;" horiz-adv-x="760" 
d="M573 220q-11 -6 -17 -2q-12 8 -7 18l23 66h-147v-149l65 23q11 4 19 -7q4 -7 -2 -17l-126 -167l-126 167q-6 11 -3 17q9 11 20 7l65 -23v149h-149l23 -66q5 -10 -7 -18q-6 -4 -17 2l-167 126l167 126q12 7 17 3q11 -9 7 -20l-23 -65h149v157l-65 -23q-11 -4 -20 7
q-4 5 3 17l126 167l126 -167q6 -11 2 -17q-8 -11 -19 -7l-65 23v-157h147l-23 65q-4 11 7 20q5 4 17 -3l167 -126z" />
    <glyph glyph-name="plusminus" unicode="&#xb1;" horiz-adv-x="760" 
d="M573 220q-11 -6 -17 -2q-12 8 -7 18l23 66h-147v-149l65 23q11 4 19 -7q4 -7 -2 -17l-126 -167l-126 167q-6 11 -3 17q9 11 20 7l65 -23v149h-149l23 -66q5 -10 -7 -18q-6 -4 -17 2l-167 126l167 126q12 7 17 3q11 -9 7 -20l-23 -65h149v157l-65 -23q-11 -4 -20 7
q-4 5 3 17l126 167l126 -167q6 -11 2 -17q-8 -11 -19 -7l-65 23v-157h147l-23 65q-4 11 7 20q5 4 17 -3l167 -126z" />
    <glyph glyph-name="lessequal" unicode="&#x2264;" horiz-adv-x="760" 
d="M573 220q-11 -6 -17 -2q-12 8 -7 18l23 66h-147v-149l65 23q11 4 19 -7q4 -7 -2 -17l-126 -167l-126 167q-6 11 -3 17q9 11 20 7l65 -23v149h-149l23 -66q5 -10 -7 -18q-6 -4 -17 2l-167 126l167 126q12 7 17 3q11 -9 7 -20l-23 -65h149v157l-65 -23q-11 -4 -20 7
q-4 5 3 17l126 167l126 -167q6 -11 2 -17q-8 -11 -19 -7l-65 23v-157h147l-23 65q-4 11 7 20q5 4 17 -3l167 -126z" />
    <glyph glyph-name="greaterequal" unicode="&#x2265;" horiz-adv-x="760" 
d="M573 220q-11 -6 -17 -2q-12 8 -7 18l23 66h-147v-149l65 23q11 4 19 -7q4 -7 -2 -17l-126 -167l-126 167q-6 11 -3 17q9 11 20 7l65 -23v149h-149l23 -66q5 -10 -7 -18q-6 -4 -17 2l-167 126l167 126q12 7 17 3q11 -9 7 -20l-23 -65h149v157l-65 -23q-11 -4 -20 7
q-4 5 3 17l126 167l126 -167q6 -11 2 -17q-8 -11 -19 -7l-65 23v-157h147l-23 65q-4 11 7 20q5 4 17 -3l167 -126z" />
    <glyph glyph-name="yen" unicode="&#xa5;" horiz-adv-x="639" 
d="M371 277v-67h161v-92h-161v-118h-103v118h-161v92h161v63l-237 427h118l95 -180q9 -17 20.5 -39t22.5 -43.5t20 -40.5t13 -31q4 12 13 31t20 40t22.5 42.5t20.5 39.5l96 181h116z" />
    <glyph glyph-name="mu" unicode="&#xb5;" horiz-adv-x="800" 
d="M581 206q-14 -8 -21 -2q-14 9 -9 25l21 67h-344l21 -67q5 -16 -9 -25q-8 -6 -22 2l-198 140l199 139q13 9 21 3q13 -9 9 -24l-21 -68h344l-21 68q-4 15 9 24q8 6 21 -3l199 -139z" />
    <glyph glyph-name="partialdiff" unicode="&#x2202;" horiz-adv-x="410" 
d="M347 205q6 -8 -3 -21l-139 -199l-140 199q-8 14 -2 21q9 14 25 9l67 -21v314l-67 -21q-16 -5 -25 9q-6 8 2 22l140 198l139 -199q9 -13 3 -21q-9 -13 -24 -9l-68 21v-314l68 21q15 4 24 -9z" />
    <glyph glyph-name="summation" unicode="&#x2211;" horiz-adv-x="760" 
d="M573 220q-11 -6 -17 -2q-12 8 -7 18l23 66h-147v-149l65 23q11 4 19 -7q4 -7 -2 -17l-126 -167l-126 167q-6 11 -3 17q9 11 20 7l65 -23v149h-149l23 -66q5 -10 -7 -18q-6 -4 -17 2l-167 126l167 126q12 7 17 3q11 -9 7 -20l-23 -65h149v157l-65 -23q-11 -4 -20 7
q-4 5 3 17l126 167l126 -167q6 -11 2 -17q-8 -11 -19 -7l-65 23v-157h147l-23 65q-4 11 7 20q5 4 17 -3l167 -126z" />
    <glyph glyph-name="product" unicode="&#x220f;" horiz-adv-x="760" 
d="M573 220q-11 -6 -17 -2q-12 8 -7 18l23 66h-147v-149l65 23q11 4 19 -7q4 -7 -2 -17l-126 -167l-126 167q-6 11 -3 17q9 11 20 7l65 -23v149h-149l23 -66q5 -10 -7 -18q-6 -4 -17 2l-167 126l167 126q12 7 17 3q11 -9 7 -20l-23 -65h149v157l-65 -23q-11 -4 -20 7
q-4 5 3 17l126 167l126 -167q6 -11 2 -17q-8 -11 -19 -7l-65 23v-157h147l-23 65q-4 11 7 20q5 4 17 -3l167 -126z" />
    <glyph glyph-name="pi" unicode="&#x3c0;" horiz-adv-x="836" 
d="M779 350q0 -77 -27.5 -143t-76 -114.5t-114.5 -76t-143 -27.5t-143 27.5t-114.5 76t-76 114.5t-27.5 143t27.5 143t76 114.5t114.5 76t143 27.5t143 -27.5t114.5 -76t76 -114.5t27.5 -143zM721 350q0 64 -23 119.5t-64 96.5t-96.5 64t-119.5 23q-65 0 -120 -23t-96 -64
t-64 -96.5t-23 -119.5q0 -65 23 -120t64 -96t96 -64t120 -23q64 0 119.5 23t96.5 64t64 96t23 120zM594 423q0 -63 -37 -94.5t-96 -31.5h-94v-144h-67v394h165q26 0 49.5 -8t41 -23.5t28 -39t10.5 -53.5zM526 423q0 29 -17 44t-45 15h-97v-121h97q31 0 46.5 16.5t15.5 45.5z
" />
    <glyph glyph-name="integral" unicode="&#x222b;" 
d="M392 0v50q-29 -26 -62 -43.5t-75 -17.5t-79 16t-64.5 50t-43 87.5t-15.5 128.5q0 67 17 117t45.5 83t66 49t78.5 16q40 0 75 -18t57 -42v49h102v-525h-102zM393 372q-9 12 -22 24t-29 22t-34.5 16.5t-37.5 6.5q-56 0 -85 -41.5t-29 -125.5q0 -100 30.5 -145t87.5 -45
q37 0 68 20.5t51 46.5v221z" />
    <glyph glyph-name="ordfeminine" unicode="&#xaa;" horiz-adv-x="460" 
d="M306 279v37q-22 -21 -50.5 -34t-60.5 -13q-26 0 -52.5 7.5t-48 25t-35 45t-13.5 66.5q0 34 13 60t36 43.5t54.5 26t67.5 8.5q52 0 89 -16v27q0 70 -77 70q-31 0 -57 -5.5t-52 -19.5l-33 63q30 19 65.5 30t79.5 11q71 0 115 -36.5t44 -108.5v-287h-85zM306 457
q-17 8 -39 13.5t-54 5.5q-39 0 -61.5 -16t-22.5 -45q0 -32 19 -49.5t60 -17.5q32 0 58 16.5t40 36.5v56z" />
    <glyph glyph-name="ordmasculine" unicode="&#xba;" horiz-adv-x="484" 
d="M431 493q0 -53 -14.5 -94.5t-40.5 -70t-61 -43.5t-76 -15q-40 0 -74 16t-59 44.5t-39 69t-14 90.5q0 52 14.5 93t40 69.5t60 43.5t74.5 15t75 -15.5t60 -44t39.5 -69t14.5 -89.5zM344 490q0 64 -28 101.5t-77 37.5q-47 0 -73 -37t-26 -99q0 -69 28 -105t75 -36
q23 0 41.5 11t32 29.5t20.5 43.5t7 54z" />
    <glyph glyph-name="Omega" unicode="&#x2126;" horiz-adv-x="410" 
d="M347 495q-9 -13 -24 -9l-68 21v-507h-100v507l-67 -21q-16 -5 -25 9q-6 8 2 22l140 198l139 -199q9 -13 3 -21z" />
    <glyph glyph-name="ae" unicode="&#xe6;" horiz-adv-x="850" 
d="M794 272q0 -14 -1 -26.5t-2 -20.5h-321q4 -71 37 -105.5t81 -34.5q34 0 55 11t46 31l63 -68q-17 -17 -34.5 -30t-37.5 -22t-44 -13.5t-54 -4.5q-51 0 -95 22t-73 67q-29 -41 -75 -65t-104 -24q-32 0 -64.5 9.5t-59 30.5t-43.5 55t-17 82q0 43 16 75.5t44.5 53.5t67 31.5
t83.5 10.5q35 0 60.5 -5.5t46.5 -15.5v37q0 42 -21.5 64.5t-69.5 22.5q-39 0 -71.5 -8t-62.5 -25l-41 80q38 23 81 36t97 13q67 0 101 -21t52 -52q27 33 62 53t89 20q53 0 92 -21.5t65 -58t39 -84.5t13 -100zM692 313q-2 26 -8 49.5t-19 41t-34 27.5t-51 10q-51 0 -77.5 -35
t-31.5 -93h221zM369 223q-20 11 -44.5 17t-66.5 6q-49 0 -77 -21t-28 -56q0 -38 23.5 -61t74.5 -23q41 0 71 20.5t47 44.5v73z" />
    <glyph glyph-name="oslash" unicode="&#xf8;" 
d="M519 265q0 -65 -18 -116.5t-50 -87t-75 -54t-94 -18.5q-43 0 -83 16l-28 -55h-92l50 101q-36 36 -57 89.5t-21 121.5q0 64 18 115t49.5 86.5t74 54t92.5 18.5q41 0 80 -14l26 53h92l-48 -96q39 -35 61.5 -90t22.5 -124zM416 262q0 43 -7 72.5t-20 51.5l-149 -297
q24 -8 46 -8q31 0 55 14t40.5 39t25.5 57.5t9 70.5zM323 438q-20 6 -42 6q-61 0 -94 -49t-33 -130q0 -39 6 -68t17 -51z" />
    <glyph glyph-name="questiondown" unicode="&#xbf;" horiz-adv-x="571" 
d="M388 636q0 -31 -22 -53.5t-53 -22.5t-53 22.5t-22 53.5t22 53t53 22t53 -22t22 -53zM537 92q-43 -43 -104.5 -73t-139.5 -30q-53 0 -97 12t-75.5 35.5t-49 58t-17.5 80.5q0 36 8.5 63.5t24.5 49t40 39t56 35.5q24 13 39 25.5t23 27.5t10.5 34.5t2.5 48.5h109
q0 -44 -5 -75t-19.5 -55t-40 -44.5t-67.5 -43.5q-38 -21 -56 -42t-18 -57q0 -42 35 -65t100 -23q56 0 96 21t78 57z" />
    <glyph glyph-name="exclamdown" unicode="&#xa1;" horiz-adv-x="298" 
d="M224 636q0 -31 -22 -53.5t-53 -22.5t-53 22.5t-22 53.5t22 53t53 22t53 -22t22 -53zM96 0v311l20 187h66l20 -187v-311h-106z" />
    <glyph glyph-name="logicalnot" unicode="&#xac;" horiz-adv-x="650" 
d="M431 206q-14 -8 -21 -2q-14 9 -9 25l21 67h-377v100h377l-21 68q-4 15 9 24q8 6 21 -3l199 -139z" />
    <glyph glyph-name="radical" unicode="&#x221a;" horiz-adv-x="617" 
d="M310 0h-109l-163 340h119l43 -98q6 -14 14.5 -33t16.5 -38t14.5 -35.5t9.5 -25.5q3 10 8.5 27t12 36.5t13 38.5t11.5 34l166 454h115z" />
    <glyph glyph-name="florin" unicode="&#x192;" horiz-adv-x="407" 
d="M357 611q-34 10 -70 10q-31 0 -44.5 -10.5t-13.5 -40.5v-45h107v-96h-107v-567l-103 -55v622h-78v96h78v54q0 74 39.5 103t103.5 29q20 0 45.5 -2.5t42.5 -7.5v-90v0z" />
    <glyph glyph-name="approxequal" unicode="&#x2248;" horiz-adv-x="410" 
d="M347 205q6 -8 -3 -21l-139 -199l-140 199q-8 14 -2 21q9 14 25 9l67 -21v507h100v-506l68 20q15 4 24 -9z" />
    <glyph glyph-name="Delta" unicode="&#x2206;" horiz-adv-x="650" 
d="M228 296l21 -67q5 -16 -9 -25q-8 -6 -22 2l-198 140l199 139q13 9 21 3q13 -9 9 -24l-21 -68h377v-100h-377z" />
    <glyph glyph-name="guillemotleft" unicode="&#xab;" horiz-adv-x="588" 
d="M437 0l-185 262l185 263h111l-180 -262l180 -263h-111zM215 0l-185 262l185 263h111l-180 -262l180 -263h-111z" />
    <glyph glyph-name="guillemotright" unicode="&#xbb;" horiz-adv-x="588" 
d="M373 0h-111l180 262l-180 263h111l185 -262zM151 0h-111l180 262l-180 263h111l185 -262z" />
    <glyph glyph-name="ellipsis" unicode="&#x2026;" horiz-adv-x="762" 
d="M714 68q0 -32 -23.5 -55.5t-55.5 -23.5t-55.5 23.5t-23.5 55.5q0 16 6.5 30.5t17 25.5t25 17.5t30.5 6.5t30.5 -6.5t25 -17.5t17 -25.5t6.5 -30.5zM460 68q0 -32 -23.5 -55.5t-55.5 -23.5t-55.5 23.5t-23.5 55.5q0 16 6.5 30.5t17 25.5t25 17.5t30.5 6.5t30.5 -6.5
t25 -17.5t17 -25.5t6.5 -30.5zM206 68q0 -32 -23.5 -55.5t-55.5 -23.5t-55.5 23.5t-23.5 55.5q0 16 6.5 30.5t17 25.5t25 17.5t30.5 6.5t30.5 -6.5t25 -17.5t17 -25.5t6.5 -30.5z" />
    <glyph glyph-name="nonbreakingspace" unicode="&#xa0;" horiz-adv-x="135" 
 />
    <glyph glyph-name="Agrave" unicode="&#xc0;" horiz-adv-x="712" 
d="M553 0l-59 166h-280l-58 -166h-109l252 700h111l255 -700h-112zM406 421q-6 19 -14 42t-15.5 46t-14 42.5t-9.5 30.5q-3 -11 -9 -30.5t-13 -42t-14.5 -46.5t-14.5 -43l-56 -160h216zM333 745l-165 160h140l107 -160h-82z" />
    <glyph glyph-name="Atilde" unicode="&#xc3;" horiz-adv-x="712" 
d="M553 0l-59 166h-280l-58 -166h-109l252 700h111l255 -700h-112zM406 421q-6 19 -14 42t-15.5 46t-14 42.5t-9.5 30.5q-3 -11 -9 -30.5t-13 -42t-14.5 -46.5t-14.5 -43l-56 -160h216zM534 878q0 -67 -30 -101.5t-75 -34.5q-14 0 -27 2.5t-26.5 7.5t-29.5 13.5t-35 20.5
q-11 6 -21 10t-18 4q-17 0 -26 -12t-13 -43h-71q0 67 30 101.5t75 34.5q28 0 53.5 -10t64.5 -34q11 -6 21 -10t18 -4q17 0 26 12t13 43h71v0z" />
    <glyph glyph-name="Otilde" unicode="&#xd5;" horiz-adv-x="709" 
d="M651 350q0 -80 -21 -146t-59.5 -114t-93.5 -74.5t-123 -26.5t-122.5 26.5t-93 74.5t-59.5 114t-21 146q0 79 21 145.5t59.5 114.5t93 74.5t122.5 26.5t123 -26.5t93.5 -74.5t59.5 -114.5t21 -145.5zM544 350q0 118 -48.5 187t-141.5 69q-92 0 -140.5 -69t-48.5 -187
t48.5 -187t140.5 -69q93 0 141.5 69t48.5 187zM531 878q0 -67 -30 -101.5t-75 -34.5q-14 0 -27 2.5t-26.5 7.5t-29.5 13.5t-35 20.5q-11 6 -21 10t-18 4q-17 0 -26 -12t-13 -43h-71q0 67 30 101.5t75 34.5q28 0 53.5 -10t64.5 -34q11 -6 21 -10t18 -4q17 0 26 12t13 43h71v0
z" />
    <glyph glyph-name="OE" unicode="&#x152;" horiz-adv-x="1059" 
d="M547 0v83q-16 -24 -38 -41.5t-47.5 -29t-53 -17.5t-54.5 -6q-68 0 -122.5 26.5t-93 74.5t-59.5 114t-21 146q0 79 21 145.5t59.5 114.5t93 74.5t122.5 26.5q60 0 113 -25.5t80 -68.5v83h439v-102h-346v-173h201v-102h-201v-221h361v-102h-454zM544 350q0 118 -48.5 187
t-141.5 69q-92 0 -140.5 -69t-48.5 -187t48.5 -187t140.5 -69q93 0 141.5 69t48.5 187z" />
    <glyph glyph-name="oe" unicode="&#x153;" horiz-adv-x="916" 
d="M860 270q0 -14 -1 -25.5t-2 -19.5h-345q4 -37 16 -63.5t29.5 -43.5t39 -25t45.5 -8q34 0 61 11t52 31l63 -70q-35 -34 -78 -51t-104 -17q-51 0 -99 26.5t-74 73.5q-29 -47 -77 -73.5t-104 -26.5q-50 0 -92 19.5t-73 55.5t-48.5 86t-17.5 112q0 64 18 115t49.5 86.5t74 54
t92.5 18.5q55 0 103 -27t74 -72q29 48 75 73.5t102 25.5t97.5 -21.5t69 -58t41 -85t13.5 -101.5zM753 313q-2 26 -9.5 49.5t-22 41t-37 27.5t-52.5 10q-51 0 -81 -32.5t-38 -95.5h240zM415 262q0 81 -35.5 128.5t-98.5 47.5q-59 0 -92.5 -47.5t-33.5 -125.5q0 -87 36 -132.5
t95 -45.5q29 0 53 14t41 37.5t26 55.5t9 68z" />
    <glyph glyph-name="endash" unicode="&#x2013;" horiz-adv-x="460" 
d="M55 318v96h350v-96h-350z" />
    <glyph glyph-name="emdash" unicode="&#x2014;" horiz-adv-x="620" 
d="M55 318v96h510v-96h-510z" />
    <glyph glyph-name="quotedblleft" unicode="&#x201c;" horiz-adv-x="500" 
d="M421 449h-131l76 251h69zM186 449h-131l76 251h69z" />
    <glyph glyph-name="quotedblright" unicode="&#x201d;" horiz-adv-x="500" 
d="M369 449h-69l14 251h131zM134 449h-69l14 251h131z" />
    <glyph glyph-name="quoteleft" unicode="&#x2018;" horiz-adv-x="265" 
d="M186 449h-131l76 251h69z" />
    <glyph glyph-name="quoteright" unicode="&#x2019;" horiz-adv-x="265" 
d="M134 449h-69l14 251h131z" />
    <glyph glyph-name="divide" unicode="&#xf7;" horiz-adv-x="760" 
d="M573 220q-11 -6 -17 -2q-12 8 -7 18l23 66h-147v-149l65 23q11 4 19 -7q4 -7 -2 -17l-126 -167l-126 167q-6 11 -3 17q9 11 20 7l65 -23v149h-149l23 -66q5 -10 -7 -18q-6 -4 -17 2l-167 126l167 126q12 7 17 3q11 -9 7 -20l-23 -65h149v157l-65 -23q-11 -4 -20 7
q-4 5 3 17l126 167l126 -167q6 -11 2 -17q-8 -11 -19 -7l-65 23v-157h147l-23 65q-4 11 7 20q5 4 17 -3l167 -126z" />
    <glyph glyph-name="lozenge" unicode="&#x25ca;" horiz-adv-x="760" 
d="M573 220q-11 -6 -17 -2q-12 8 -7 18l23 66h-147v-149l65 23q11 4 19 -7q4 -7 -2 -17l-126 -167l-126 167q-6 11 -3 17q9 11 20 7l65 -23v149h-149l23 -66q5 -10 -7 -18q-6 -4 -17 2l-167 126l167 126q12 7 17 3q11 -9 7 -20l-23 -65h149v157l-65 -23q-11 -4 -20 7
q-4 5 3 17l126 167l126 -167q6 -11 2 -17q-8 -11 -19 -7l-65 23v-157h147l-23 65q-4 11 7 20q5 4 17 -3l167 -126z" />
    <glyph glyph-name="ydieresis" unicode="&#xff;" horiz-adv-x="556" 
d="M259 -185h-109l76 195l-193 515h113l86 -257q6 -17 13 -39t13.5 -44t12 -40.5t7.5 -29.5q3 12 8.5 30.5t12 39.5t13.5 42.5t13 38.5l89 259h109zM442 653q0 -27 -20 -47t-47 -20q-28 0 -48 20t-20 47q0 28 20 48t48 20q27 0 47 -20t20 -48zM247 653q0 -27 -20 -47
t-47 -20q-28 0 -48 20t-20 47q0 28 20 48t48 20q27 0 47 -20t20 -48z" />
    <glyph glyph-name="Ydieresis" unicode="&#x178;" horiz-adv-x="689" 
d="M397 277v-277h-105v277l-251 423h123l109 -193q9 -16 19.5 -36t21 -39.5t18.5 -36.5t13 -27q4 10 12.5 26.5t18.5 35.5t21 39t20 37l110 194h121zM510 802q0 -27 -20 -47t-47 -20q-28 0 -48 20t-20 47q0 28 20 48t48 20q27 0 47 -20t20 -48zM315 802q0 -27 -20 -47
t-47 -20q-28 0 -48 20t-20 47q0 28 20 48t48 20q27 0 47 -20t20 -48z" />
    <glyph glyph-name="fraction" unicode="&#x2044;" horiz-adv-x="473" 
d="M60 0h-116l469 700h116z" />
    <glyph glyph-name="Euro" unicode="&#x20ac;" horiz-adv-x="760" 
d="M577 565q-32 18 -72 30.5t-91 12.5q-30 0 -57 -7.5t-49 -25t-38 -45.5t-25 -69h300l-27 -72h-282q-2 -9 -1.5 -19t0.5 -20q0 -13 -0.5 -25t1.5 -24h256l-28 -72h-216q17 -68 57.5 -103t108.5 -35q49 0 84.5 9.5t73.5 29.5l43 -88q-42 -26 -92.5 -39.5t-110.5 -13.5
q-117 0 -188 64.5t-94 175.5h-110l28 72h72q-1 12 -1.5 24.5t-0.5 24.5q0 11 0.5 20t1.5 19h-98l26 72h80q23 120 96 185t190 65q61 0 112.5 -14.5t89.5 -38.5z" />
    <glyph glyph-name="guilsinglleft" unicode="&#x2039;" horiz-adv-x="366" 
d="M215 0l-185 262l185 263h111l-180 -262l180 -263h-111z" />
    <glyph glyph-name="guilsinglright" unicode="&#x203a;" horiz-adv-x="366" 
d="M151 0h-111l180 262l-180 263h111l185 -262z" />
    <glyph glyph-name="fi" unicode="&#xfb01;" horiz-adv-x="620" 
d="M554 659q0 -27 -19.5 -46.5t-46.5 -19.5q-28 0 -47.5 19.5t-19.5 46.5q0 28 19.5 47.5t47.5 19.5q27 0 46.5 -19.5t19.5 -47.5zM436 0v525h103v-525h-103zM322 626q-34 10 -60 10t-37 -11t-11 -40v-60h97v-96h-97v-429h-103v429h-68v96h68v69q0 36 10.5 61t28.5 41t42 23
t52 7q20 0 40.5 -2.5t37.5 -7.5v-90z" />
    <glyph glyph-name="fl" unicode="&#xfb02;" horiz-adv-x="620" 
d="M436 0v675l103 54v-729h-103zM322 626q-34 10 -60 10t-37 -11t-11 -40v-60h97v-96h-97v-429h-103v429h-68v96h68v69q0 36 10.5 61t28.5 41t42 23t52 7q20 0 40.5 -2.5t37.5 -7.5v-90z" />
    <glyph glyph-name="daggerdbl" unicode="&#x2021;" horiz-adv-x="594" 
d="M348 123v-223h-102v223h-191v97h191v160h-191v97h191v223h102v-223h191v-97h-191v-160h191v-97h-191z" />
    <glyph glyph-name="periodcentered" unicode="&#xb7;" horiz-adv-x="254" 
d="M206 367q0 -32 -23.5 -55.5t-55.5 -23.5t-55.5 23.5t-23.5 55.5q0 16 6.5 30.5t17 25.5t25 17.5t30.5 6.5t30.5 -6.5t25 -17.5t17 -25.5t6.5 -30.5z" />
    <glyph glyph-name="quotesinglbase" unicode="&#x201a;" horiz-adv-x="265" 
d="M134 -112h-69l14 251h131z" />
    <glyph glyph-name="quotedblbase" unicode="&#x201e;" horiz-adv-x="500" 
d="M369 -112h-69l14 251h131zM134 -112h-69l14 251h131z" />
    <glyph glyph-name="perthousand" unicode="&#x2030;" horiz-adv-x="1372" 
d="M1333 207q0 -48 -13 -88t-36 -69t-55 -45t-70 -16t-69.5 16t-54 44.5t-35 68t-12.5 87.5t12.5 88.5t35 69.5t54.5 45t71 16q40 0 71.5 -16t54 -45t34.5 -68.5t12 -87.5zM929 207q0 -48 -13 -88t-36 -69t-55 -45t-70 -16t-69.5 16t-54 44.5t-35 68t-12.5 87.5t12.5 88.5
t35 69.5t54.5 45t71 16q40 0 71.5 -16t54 -45t34.5 -68.5t12 -87.5zM325 0h-101l429 700h101zM395 494q0 -48 -13 -88t-36 -69t-55 -45t-70 -16t-69.5 16t-54 44.5t-35 68t-12.5 87.5t12.5 88.5t35 69.5t54.5 45t71 16q40 0 71.5 -16t54 -45t34.5 -68.5t12 -87.5zM1243 205
q0 60 -21.5 96t-61.5 36t-61 -35t-21 -95t21.5 -96t61.5 -36t61 37.5t21 92.5zM839 205q0 60 -21.5 96t-61.5 36t-61 -35t-21 -95t21.5 -96t61.5 -36t61 37.5t21 92.5zM305 492q0 60 -21.5 96t-61.5 36t-61 -35t-21 -95t21.5 -96t61.5 -36t61 37.5t21 92.5z" />
    <glyph glyph-name="Acircumflex" unicode="&#xc2;" horiz-adv-x="712" 
d="M553 0l-59 166h-280l-58 -166h-109l252 700h111l255 -700h-112zM406 421q-6 19 -14 42t-15.5 46t-14 42.5t-9.5 30.5q-3 -11 -9 -30.5t-13 -42t-14.5 -46.5t-14.5 -43l-56 -160h216zM448 734l-95 88l-95 -88h-81l117 160h120l117 -160h-83z" />
    <glyph glyph-name="Ecircumflex" unicode="&#xca;" horiz-adv-x="615" 
d="M91 0v700h451v-102h-346v-173h201v-102h-201v-221h361v-102h-466zM405 745l-95 88l-95 -88h-81l117 160h120l117 -160h-83z" />
    <glyph glyph-name="Aacute" unicode="&#xc1;" horiz-adv-x="712" 
d="M553 0l-59 166h-280l-58 -166h-109l252 700h111l255 -700h-112zM406 421q-6 19 -14 42t-15.5 46t-14 42.5t-9.5 30.5q-3 -11 -9 -30.5t-13 -42t-14.5 -46.5t-14.5 -43l-56 -160h216zM373 745h-82l107 160h140z" />
    <glyph glyph-name="Edieresis" unicode="&#xcb;" horiz-adv-x="615" 
d="M91 0v700h451v-102h-346v-173h201v-102h-201v-221h361v-102h-466zM476 812q0 -27 -20 -47t-47 -20q-28 0 -48 20t-20 47q0 28 20 48t48 20q27 0 47 -20t20 -48zM281 812q0 -27 -20 -47t-47 -20q-28 0 -48 20t-20 47q0 28 20 48t48 20q27 0 47 -20t20 -48z" />
    <glyph glyph-name="Egrave" unicode="&#xc8;" horiz-adv-x="615" 
d="M91 0v700h451v-102h-346v-173h201v-102h-201v-221h361v-102h-466zM292 745l-165 160h140l107 -160h-82z" />
    <glyph glyph-name="Iacute" unicode="&#xcd;" horiz-adv-x="297" 
d="M96 0v700h105v-700h-105zM181 745h-82l107 160h140z" />
    <glyph glyph-name="Icircumflex" unicode="&#xce;" horiz-adv-x="297" 
d="M-28 0v700h105v-700h-105zM243 738l-95 88l-95 -88h-81l117 160h120l117 -160h-83z" />
    <glyph glyph-name="Idieresis" unicode="&#xcf;" horiz-adv-x="297" 
d="M-16 0v700h105v-700h-105zM314 812q0 -27 -20 -47t-47 -20q-28 0 -48 20t-20 47q0 28 20 48t48 20q27 0 47 -20t20 -48zM119 812q0 -27 -20 -47t-47 -20q-28 0 -48 20t-20 47q0 28 20 48t48 20q27 0 47 -20t20 -48z" />
    <glyph glyph-name="Igrave" unicode="&#xcc;" horiz-adv-x="297" 
d="M96 0v700h105v-700h-105zM120 745l-165 160h140l107 -160h-82z" />
    <glyph glyph-name="Oacute" unicode="&#xd3;" horiz-adv-x="709" 
d="M651 350q0 -80 -21 -146t-59.5 -114t-93.5 -74.5t-123 -26.5t-122.5 26.5t-93 74.5t-59.5 114t-21 146q0 79 21 145.5t59.5 114.5t93 74.5t122.5 26.5t123 -26.5t93.5 -74.5t59.5 -114.5t21 -145.5zM544 350q0 118 -48.5 187t-141.5 69q-92 0 -140.5 -69t-48.5 -187
t48.5 -187t140.5 -69q93 0 141.5 69t48.5 187zM371 745h-82l107 160h140z" />
    <glyph glyph-name="Ocircumflex" unicode="&#xd4;" horiz-adv-x="709" 
d="M651 350q0 -80 -21 -146t-59.5 -114t-93.5 -74.5t-123 -26.5t-122.5 26.5t-93 74.5t-59.5 114t-21 146q0 79 21 145.5t59.5 114.5t93 74.5t122.5 26.5t123 -26.5t93.5 -74.5t59.5 -114.5t21 -145.5zM544 350q0 118 -48.5 187t-141.5 69q-92 0 -140.5 -69t-48.5 -187
t48.5 -187t140.5 -69q93 0 141.5 69t48.5 187zM444 740l-95 88l-95 -88h-81l117 160h120l117 -160h-83z" />
    <glyph glyph-name="apple" horiz-adv-x="760" 
d="M573 220q-11 -6 -17 -2q-12 8 -7 18l23 66h-147v-149l65 23q11 4 19 -7q4 -7 -2 -17l-126 -167l-126 167q-6 11 -3 17q9 11 20 7l65 -23v149h-149l23 -66q5 -10 -7 -18q-6 -4 -17 2l-167 126l167 126q12 7 17 3q11 -9 7 -20l-23 -65h149v157l-65 -23q-11 -4 -20 7
q-4 5 3 17l126 167l126 -167q6 -11 2 -17q-8 -11 -19 -7l-65 23v-157h147l-23 65q-4 11 7 20q5 4 17 -3l167 -126z" />
    <glyph glyph-name="Ograve" unicode="&#xd2;" horiz-adv-x="709" 
d="M651 350q0 -80 -21 -146t-59.5 -114t-93.5 -74.5t-123 -26.5t-122.5 26.5t-93 74.5t-59.5 114t-21 146q0 79 21 145.5t59.5 114.5t93 74.5t122.5 26.5t123 -26.5t93.5 -74.5t59.5 -114.5t21 -145.5zM544 350q0 118 -48.5 187t-141.5 69q-92 0 -140.5 -69t-48.5 -187
t48.5 -187t140.5 -69q93 0 141.5 69t48.5 187zM331 745l-165 160h140l107 -160h-82z" />
    <glyph glyph-name="Uacute" unicode="&#xda;" horiz-adv-x="704" 
d="M618 292q0 -148 -69 -225.5t-200 -77.5q-130 0 -196.5 80t-66.5 225v406h105v-403q0 -100 40.5 -151.5t119.5 -51.5q83 0 122.5 49.5t39.5 146.5v410h105v-408v0zM373 730h-82l107 160h140z" />
    <glyph glyph-name="Ucircumflex" unicode="&#xdb;" horiz-adv-x="704" 
d="M618 292q0 -148 -69 -225.5t-200 -77.5q-130 0 -196.5 80t-66.5 225v406h105v-403q0 -100 40.5 -151.5t119.5 -51.5q83 0 122.5 49.5t39.5 146.5v410h105v-408v0zM446 745l-95 88l-95 -88h-81l117 160h120l117 -160h-83z" />
    <glyph glyph-name="Ugrave" unicode="&#xd9;" horiz-adv-x="704" 
d="M618 292q0 -148 -69 -225.5t-200 -77.5q-130 0 -196.5 80t-66.5 225v406h105v-403q0 -100 40.5 -151.5t119.5 -51.5q83 0 122.5 49.5t39.5 146.5v410h105v-408v0zM333 730l-165 160h140l107 -160h-82z" />
    <glyph glyph-name="dotlessi" unicode="&#x131;" horiz-adv-x="265" 
d="M80 0v525h103v-525h-103z" />
    <glyph glyph-name="circumflex" unicode="&#x2c6;" horiz-adv-x="500" 
d="M344 595l-95 88l-95 -88h-81l117 160h120l117 -160h-83z" />
    <glyph glyph-name="tilde" unicode="&#x2dc;" horiz-adv-x="500" 
d="M439 728q0 -67 -30 -101.5t-75 -34.5q-14 0 -27 2.5t-26.5 7.5t-29.5 13.5t-35 20.5q-11 6 -21 10t-18 4q-17 0 -26 -12t-13 -43h-71q0 67 30 101.5t75 34.5q28 0 53.5 -10t64.5 -34q11 -6 21 -10t18 -4q17 0 26 12t13 43h71v0z" />
    <glyph glyph-name="macron" unicode="&#xaf;" horiz-adv-x="500" 
d="M110 610v90h280v-90h-280z" />
    <glyph glyph-name="breve" unicode="&#x2d8;" horiz-adv-x="500" 
d="M427 755q-7 -77 -53.5 -118.5t-124.5 -41.5q-76 0 -122.5 41.5t-53.5 118.5h74q6 -35 31 -55t73 -20q45 0 71.5 19.5t32.5 55.5h72v0z" />
    <glyph glyph-name="dotaccent" unicode="&#x2d9;" horiz-adv-x="500" 
d="M317 662q0 -27 -20 -47t-47 -20q-28 0 -48 20t-20 47q0 28 20 48t48 20q27 0 47 -20t20 -48z" />
    <glyph glyph-name="ring" unicode="&#x2da;" horiz-adv-x="500" 
d="M376 720q0 -27 -9.5 -50t-26.5 -39.5t-40 -26t-50 -9.5t-50 9.5t-40 26t-26.5 39.5t-9.5 50t9.5 50t26.5 40t40 26.5t50 9.5t50 -9.5t40 -26.5t26.5 -40t9.5 -50zM311 720q0 27 -17.5 44.5t-43.5 17.5t-43.5 -17.5t-17.5 -44.5t17.5 -44.5t43.5 -17.5t43.5 17.5
t17.5 44.5z" />
    <glyph glyph-name="cedilla" unicode="&#xb8;" horiz-adv-x="500" 
d="M375 -106q0 -24 -9.5 -40.5t-26 -27t-39 -15t-47.5 -4.5q-36 0 -66 9.5t-57 26.5l22 33q20 -11 42.5 -17.5t45.5 -6.5q33 0 48.5 11t15.5 28q0 15 -9 23.5t-23 8.5t-23 -4t-17 -11l-36 14l18 90h51l-10 -57q9 4 20 6.5t28 2.5q13 0 25.5 -4t23 -12.5t17 -21.5t6.5 -32z
" />
    <glyph glyph-name="hungarumlaut" unicode="&#x2dd;" horiz-adv-x="500" 
d="M337 595h-82l107 160h140zM132 595h-82l107 160h140z" />
    <glyph glyph-name="ogonek" unicode="&#x2db;" horiz-adv-x="500" 
d="M376 -150q-23 -17 -53 -30t-65 -13q-51 0 -78 22t-27 64q0 33 22.5 59.5t63.5 47.5h50q-32 -29 -45.5 -53t-13.5 -47q0 -18 11.5 -29.5t31.5 -11.5q21 0 39 6t41 19l23 -34v0z" />
    <glyph glyph-name="caron" unicode="&#x2c7;" horiz-adv-x="500" 
d="M310 595h-120l-117 160h83l95 -88l95 88h81z" />
    <glyph glyph-name="Eth" unicode="&#xd0;" horiz-adv-x="694" 
d="M638 350q0 -93 -27.5 -159t-74.5 -108.5t-108.5 -62.5t-130.5 -20h-191v316h-66v100h66v284h191q70 0 132.5 -20t108.5 -62.5t73 -108.5t27 -159zM531 350q0 55 -13 100.5t-41.5 78t-73 50.5t-106.5 18h-89v-181h127v-100h-127v-213h89q62 0 106.5 18t73 50.5t41.5 78
t13 100.5z" />
    <glyph glyph-name="eth" unicode="&#xf0;" 
d="M519 291q0 -81 -18 -138.5t-50 -93.5t-75 -53t-94 -17q-50 0 -92 17t-73 49.5t-48.5 78.5t-17.5 104q0 60 17.5 105t46.5 75t68 45t81 15q45 0 86 -16t68 -50q-11 45 -32.5 84.5t-56.5 68.5l-50 -52l-59 52l39 41q-37 17 -85 20v85q43 -2 80 -12t68 -27l37 39l59 -52
l-30 -32q35 -31 60 -70.5t40.5 -83.5t23 -90.5t7.5 -91.5zM415 238q0 76 -38 114t-96 38q-53 0 -89.5 -38t-36.5 -111q0 -72 36 -113t95 -41q29 0 53 11.5t41 31.5t26 48t9 60z" />
    </font>
</defs>
</svg>
